<?xml version="1.0" standalone="no"?>
<!DOCTYPE svg PUBLIC "-//W3C//DTD SVG 1.1//EN" "http://www.w3.org/Graphics/SVG/1.1/DTD/svg11.dtd" >
<svg xmlns="http://www.w3.org/2000/svg">
<metadata></metadata>
<defs>
<font id="merriweather_sansXBdIt" horiz-adv-x="0" >
<font-face units-per-em="2048" ascent="1638" descent="-410" />
<missing-glyph horiz-adv-x="485" />
<glyph unicode="&#xfb01;" horiz-adv-x="1429" d="M110 0l127 924h-122l41 216h111l19 105q28 190 159.5 307.5t330.5 117.5q115 0 179 -26l-62 -238q-13 13 -50.5 31t-74.5 17q-49 -1 -81.5 -32t-48.5 -123l-28 -159h189l-27 -216h-187q-93 -675 -125 -906l-2 -18h-348zM845 0l156 1140h359l-158 -1140h-357zM1044 1480 q2 84 60.5 142.5t149.5 58.5q79 0 129 -48.5t48 -117.5q-2 -88 -58.5 -145t-159.5 -57q-69 0 -119.5 49t-49.5 118z" />
<glyph unicode="&#xfb02;" horiz-adv-x="1430" d="M110 0l127 924h-122l41 216h111l19 105q28 190 159.5 307.5t330.5 117.5q115 0 179 -26l-62 -238q-13 13 -50.5 31t-74.5 17q-49 -1 -81.5 -32t-48.5 -123l-28 -159h189l-27 -216h-187q-93 -675 -125 -906l-2 -18h-348zM848 0l220 1634h359l-222 -1634h-357z" />
<glyph unicode="&#xfb03;" horiz-adv-x="2194" d="M110 0l127 924h-122l41 216h111l19 105q28 190 159.5 307.5t330.5 117.5q115 0 179 -26l-62 -238q-13 13 -50.5 31t-74.5 17q-49 -1 -81.5 -32t-48.5 -123l-28 -159h189l-27 -216h-187q-93 -675 -125 -906l-2 -18h-348zM875 0l127 924h-122l41 216h111l19 105 q28 190 159.5 307.5t330.5 117.5q115 0 179 -26l-62 -238q-13 13 -50.5 31t-74.5 17q-49 -1 -81.5 -32t-48.5 -123l-28 -159h189l-27 -216h-187q-93 -675 -125 -906l-2 -18h-348zM1610 0l156 1140h359l-158 -1140h-357zM1809 1480q2 84 60.5 142.5t149.5 58.5 q79 0 129 -48.5t48 -117.5q-2 -88 -58.5 -145t-159.5 -57q-69 0 -119.5 49t-49.5 118z" />
<glyph unicode="&#xfb04;" horiz-adv-x="2195" d="M110 0l127 924h-122l41 216h111l19 105q28 190 159.5 307.5t330.5 117.5q115 0 179 -26l-62 -238q-13 13 -50.5 31t-74.5 17q-49 -1 -81.5 -32t-48.5 -123l-28 -159h189l-27 -216h-187q-93 -675 -125 -906l-2 -18h-348zM875 0l127 924h-122l41 216h111l19 105 q28 190 159.5 307.5t330.5 117.5q115 0 179 -26l-62 -238q-13 13 -50.5 31t-74.5 17q-49 -1 -81.5 -32t-48.5 -123l-28 -159h189l-27 -216h-187q-93 -675 -125 -906l-2 -18h-348zM1613 0l220 1634h359l-222 -1634h-357z" />
<glyph horiz-adv-x="2048" />
<glyph horiz-adv-x="2048" />
<glyph unicode="&#xd;" horiz-adv-x="2048" />
<glyph />
<glyph />
<glyph />
<glyph />
<glyph />
<glyph />
<glyph />
<glyph />
<glyph unicode="&#x9;" />
<glyph unicode="&#xa;" />
<glyph />
<glyph />
<glyph />
<glyph />
<glyph />
<glyph />
<glyph />
<glyph />
<glyph />
<glyph />
<glyph />
<glyph />
<glyph unicode=" "  horiz-adv-x="485" />
<glyph unicode="&#x09;" horiz-adv-x="485" />
<glyph unicode="&#xa0;" horiz-adv-x="485" />
<glyph unicode="!" horiz-adv-x="686" d="M95 123q0 88 57.5 151.5t150.5 63.5q83 0 122 -41.5t39 -107.5q0 -98 -58 -158t-155 -60q-72 0 -114 42t-42 110zM201 488l136 1290h365l-243 -1290h-258z" />
<glyph unicode="&#x22;" horiz-adv-x="1133" d="M216 966l85 721h327l-184 -721h-228zM785 966l85 721h327l-184 -721h-228z" />
<glyph unicode="#" horiz-adv-x="1405" d="M108 321l20 228h186l50 301h-180l19 221h192l47 286h245l-45 -286h231l50 286h245l-48 -286h192l-19 -221h-204l-51 -301h187l-20 -228h-199l-54 -321h-240l48 321h-232l-59 -321h-242l55 321h-174zM560 549h232l50 301h-231z" />
<glyph unicode="$" horiz-adv-x="1204" d="M72 78l115 282q52 -40 131.5 -69.5t151.5 -29.5q215 0 215 140q0 66 -42 123t-150 136q-264 198 -269 431q-4 168 102.5 284t287.5 154l45 264h240l-43 -251q167 -14 264 -81l-108 -281q-35 35 -117 61t-155 26q-89 0 -138 -35t-49 -90q0 -46 23.5 -87t59.5 -74t118 -99 q58 -44 97.5 -79.5t88 -91t75 -121.5t27.5 -138q3 -194 -103.5 -310t-303.5 -147l-49 -270h-240l48 265q-100 10 -196 37t-126 51z" />
<glyph unicode="%" horiz-adv-x="2003" d="M102 1035q0 125 61.5 238.5t174.5 186t248 72.5q324 0 324 -344q0 -97 -34.5 -189t-95.5 -164.5t-153.5 -117t-199.5 -44.5q-158 0 -241.5 95.5t-83.5 266.5zM337 1052q0 -77 35.5 -124.5t97.5 -47.5q48 0 87.5 29t61.5 73t34 90.5t12 88.5q0 77 -32.5 121.5t-90.5 44.5 q-49 0 -90 -27.5t-65 -70t-37 -89t-13 -88.5zM536 0l727 1530h249l-707 -1530h-269zM1173 421q0 125 61.5 238.5t174.5 186t248 72.5q324 0 324 -344q0 -97 -34.5 -189t-95.5 -164.5t-153.5 -117t-199.5 -44.5q-158 0 -241.5 95.5t-83.5 266.5zM1408 438q0 -77 35.5 -124.5 t97.5 -47.5q48 0 87.5 29t61.5 73t34 90.5t12 88.5q0 77 -32.5 121.5t-90.5 44.5q-49 0 -90 -27.5t-65 -70t-37 -89t-13 -88.5z" />
<glyph unicode="&#x26;" horiz-adv-x="1565" d="M5 361q0 73 26 136t76.5 115t105 91t129.5 81q-79 184 -79 324q0 189 131 313.5t363 124.5q94 0 166.5 -19.5t116.5 -49.5t72 -72t38.5 -82.5t10.5 -84.5q0 -69 -24 -133t-60 -113t-94 -98t-109.5 -83t-121.5 -75q140 -223 295 -367q48 66 48 152q0 37 -5 70 q-64 -6 -99 -30l10 224q37 45 149 45l447 -1l-20 -235h-156v-8q0 -219 -146 -371q61 -20 144 -26q36 -3 88 -1l-40 -180q-29 -11 -109.5 -17.5t-144.5 -6.5q-132 0 -248 49q-159 -49 -349 -49q-293 0 -452 93t-159 284zM352 391q0 -94 76 -133.5t212 -39.5q49 0 88 4 q-85 85 -141 160t-121 181q-114 -88 -114 -172zM592 1146q0 -88 45 -201q96 57 147.5 117.5t51.5 135.5q0 128 -119 128q-55 0 -90 -51t-35 -129z" />
<glyph unicode="'" horiz-adv-x="564" d="M216 966l85 721h327l-184 -721h-228z" />
<glyph unicode="(" horiz-adv-x="854" d="M130 540q0 162 25 310q27 159 82 302.5t118.5 244.5t138.5 184.5t136 131.5t115 78l179 -119q-175 -178 -288.5 -372.5t-159.5 -448.5q-27 -151 -27 -334q0 -436 231 -762l-176 -106h-17q-40 32 -81 78t-92.5 127.5t-90.5 175.5t-66 228.5t-27 281.5z" />
<glyph unicode=")" horiz-adv-x="854" d="M-19 -244q175 178 288.5 372.5t159.5 448.5q27 151 27 334q0 436 -231 762l176 106h17q40 -32 81 -78t92.5 -127.5t90.5 -175.5t66 -228.5t27 -281.5q0 -162 -25 -310q-27 -159 -82 -302.5t-118.5 -244.5t-138.5 -184.5t-136 -131.5t-115 -78z" />
<glyph unicode="*" horiz-adv-x="1366" d="M153 969l327 126l129 55l-118 53l-299 128l130 208l258 -203l98 -81l1 135l-8 331h238l-77 -331l-33 -135l121 81l292 205l97 -210l-327 -128l-129 -55l118 -53l299 -126l-150 -208l-239 203l-103 84l6 -138l12 -331l-244 1l77 330l28 138l-115 -84l-282 -205z" />
<glyph unicode="+" horiz-adv-x="1352" d="M182 654l35 263h249l117 -11l9 139l30 279h272l-26 -279l-25 -138l98 10h275l-35 -263h-274l-97 7l-6 -135l-34 -276h-273l33 276l25 135l-124 -7h-249z" />
<glyph unicode="," horiz-adv-x="526" d="M-32 -392l3 21q69 36 111.5 108t42.5 145q0 63 -25.5 109.5t-60.5 61.5l7 54l156 188q54 -21 95.5 -60.5t63 -86.5t32 -92t10.5 -87q0 -169 -92.5 -304t-249.5 -184z" />
<glyph unicode="-" horiz-adv-x="1266" d="M223 648l37 248h840l-37 -248h-840z" />
<glyph unicode="." horiz-adv-x="526" d="M30 123q0 88 57.5 151.5t150.5 63.5q83 0 122 -41.5t39 -107.5q0 -98 -58 -158t-155 -60q-72 0 -114 42t-42 110z" />
<glyph unicode="/" horiz-adv-x="854" d="M-142 -362l861 1959h274l-863 -1959h-272z" />
<glyph unicode="0" horiz-adv-x="1278" d="M93 450q0 148 51.5 280t138.5 225t204.5 147t246.5 54q115 0 201 -35t137.5 -99t77 -146.5t25.5 -184.5q0 -140 -48.5 -269t-131.5 -225.5t-202.5 -154.5t-253.5 -58q-113 0 -200.5 38.5t-140 104.5t-79 148t-26.5 175zM427 490q0 -97 40.5 -160t116.5 -63q64 0 115 34.5 t81 91t45.5 122.5t15.5 135q0 223 -141 224q-60 1 -108.5 -24t-78.5 -65.5t-50 -93t-28 -102.5t-8 -99z" />
<glyph unicode="1" horiz-adv-x="1036" d="M182 960q96 21 208.5 79t207.5 123l240 -10l-170 -1152h-357l120 801q-35 -11 -65 -17t-73 -11.5t-71 -10.5z" />
<glyph unicode="2" horiz-adv-x="1289" d="M51 142q271 145 463 324.5t192 299.5q0 51 -31 79.5t-85 28.5q-61 0 -148.5 -37.5t-145.5 -85.5l-119 189q76 80 209.5 148t276.5 68q107 0 191.5 -27.5t136 -75t78 -107t26.5 -126.5q0 -82 -30 -157.5t-74.5 -131.5t-118 -114t-136.5 -97t-154 -89l603 22l-45 -253 h-1043z" />
<glyph unicode="3" horiz-adv-x="1168" d="M47 -314l33 247q82 -10 134 -10q425 0 425 247q0 28 -9.5 54.5t-29.5 50.5t-56.5 39t-85.5 17l-187 -38l28 257q148 18 255.5 79t107.5 147q0 61 -36 90t-120 29q-56 0 -127.5 -26.5t-128.5 -73.5l-98 207q56 56 189.5 105t280.5 49q110 0 199 -31t145.5 -98.5 t56.5 -161.5q0 -137 -96.5 -248t-264.5 -162q162 -5 259 -93.5t97 -204.5q0 -151 -103 -261t-283.5 -166t-416.5 -56q-71 0 -168 12z" />
<glyph unicode="4" horiz-adv-x="1304" d="M1 164q49 98 255 490t299 602h297l82 -89l-510 -834l-79 -111l365 17l52 375l323 35l-47 -402l201 14l-37 -261h-200l-47 -375h-329l49 375h-596z" />
<glyph unicode="5" horiz-adv-x="1176" d="M34 -349l37 232q37 -6 79 -6q63 0 128.5 9.5t135.5 33.5t123.5 59t88.5 93t35 129q0 83 -43.5 129.5t-156.5 46.5q-54 0 -121.5 -16t-104.5 -37l-126 135l154 681h587l22 16h208l-82 -291h-468l-78 -295q31 14 91.5 24.5t126.5 10.5q82 0 149 -20t120.5 -61.5t83 -113.5 t29.5 -169q0 -143 -67 -258.5t-185.5 -191.5t-281 -116.5t-354.5 -40.5q-81 0 -130 17z" />
<glyph unicode="6" horiz-adv-x="1293" d="M111 513q0 246 114 477t322 401t469 234l79 -211q-108 -36 -210 -101.5t-169 -132t-110 -122.5t-53 -88q49 31 132 49t149 18q90 0 160.5 -35t113.5 -95.5t65.5 -137t22.5 -162.5q0 -91 -19.5 -177t-65.5 -168t-113 -143t-169 -98t-228 -37q-127 0 -222.5 40.5t-153 113 t-86 167t-28.5 208.5zM439 527q0 -143 55 -224t136 -81q50 0 91 23.5t66.5 61t42.5 85.5t24 93t7 89q0 109 -50.5 163t-127.5 54q-66 0 -126 -26t-83 -55q-35 -103 -35 -183z" />
<glyph unicode="7" horiz-adv-x="1136" d="M76 867l64 273h952l49 -66l-625 -1423l-298 107l511 1109h-653z" />
<glyph unicode="8" horiz-adv-x="1390" d="M126 350q0 68 20.5 128t55 104.5t83 81.5t100.5 62t112 44q-176 163 -176 341q0 203 138 320.5t368 117.5q202 0 332 -94.5t130 -244.5q0 -83 -27 -149.5t-76.5 -113t-104.5 -77.5t-126 -57q56 -45 97.5 -84.5t81 -91t60 -111t20.5 -123.5q0 -130 -75.5 -227 t-205.5 -146.5t-295 -49.5q-227 0 -369 98.5t-143 271.5zM461 398q0 -85 67 -143.5t149 -58.5q85 0 134.5 48.5t49.5 129.5q0 38 -18 75t-50 71t-70 66t-85 68q-3 1 -4 2.5t-3.5 3t-4 3t-3.5 2.5q-76 -50 -119 -111.5t-43 -155.5zM649 1140q0 -56 44 -108t129 -118 q157 105 157 266q0 74 -50 117t-118 43q-78 0 -120 -54.5t-42 -145.5z" />
<glyph unicode="9" horiz-adv-x="1293" d="M101 533q0 91 19.5 177t65.5 168t113 143t169 98t228 37q127 0 222.5 -40.5t153 -113t86 -167t28.5 -208.5q0 -246 -114 -477t-322 -401t-469 -234l-79 211q108 36 210 99.5t169 129t110 120t53 85.5q-50 -27 -119.5 -42t-131.5 -15q-90 0 -165.5 35.5t-124 95.5 t-75.5 137t-27 162zM436 566q0 -109 50.5 -163t127.5 -54q66 0 126 22.5t83 48.5q35 109 35 193q0 143 -55 224t-136 81q-50 0 -91 -23.5t-66.5 -61t-42.5 -85.5t-24 -93t-7 -89z" />
<glyph unicode=":" horiz-adv-x="526" d="M9 123q0 88 57.5 151.5t150.5 63.5q83 0 122 -41.5t39 -107.5q0 -98 -58 -158t-155 -60q-72 0 -114 42t-42 110zM102 932q0 88 57.5 151.5t150.5 63.5q83 0 122 -41.5t39 -107.5q0 -98 -58 -158t-155 -60q-72 0 -114 42t-42 110z" />
<glyph unicode=";" horiz-adv-x="526" d="M-32 -392l3 21q69 36 111.5 108t42.5 145q0 63 -25.5 109.5t-60.5 61.5l7 54l156 188q54 -21 95.5 -60.5t63 -86.5t32 -92t10.5 -87q0 -169 -92.5 -304t-249.5 -184zM105 932q0 88 57.5 151.5t150.5 63.5q83 0 122 -41.5t39 -107.5q0 -98 -58 -158t-155 -60 q-72 0 -114 42t-42 110z" />
<glyph unicode="&#x3c;" horiz-adv-x="1395" d="M199 700l16 130l1029 520l-37 -311l-622 -286l548 -290l-26 -283z" />
<glyph unicode="=" horiz-adv-x="1085" d="M106 315l37 248h840l-37 -248h-840zM161 808l37 248h840l-37 -248h-840z" />
<glyph unicode="&#x3e;" horiz-adv-x="1395" d="M255 183l37 311l622 286l-548 290l26 283l908 -520l-16 -130z" />
<glyph unicode="?" horiz-adv-x="1060" d="M225 707q0 94 51.5 159t200.5 139q208 93 261 178q23 66 23 127q0 87 -83.5 147.5t-220.5 60.5q-116 0 -207 -23l56 230q25 22 89.5 37.5t125.5 15.5q142 0 251 -32.5t176 -91.5t100.5 -136t33.5 -171q0 -87 -25.5 -159.5t-67 -120.5t-94.5 -90t-108.5 -70t-108.5 -58 t-94.5 -56.5t-67 -63t-25.5 -79.5q0 -21 8.5 -45t19.5 -46t13 -30l-167 -66l-17 1q-47 32 -85 104.5t-38 138.5zM327 123q0 88 57.5 151.5t150.5 63.5q83 0 122 -41.5t39 -107.5q0 -98 -58 -158t-155 -60q-72 0 -114 42t-42 110z" />
<glyph unicode="@" horiz-adv-x="2028" d="M102 374q0 265 88 487t239.5 371t357 231t439.5 82q340 0 540.5 -172.5t200.5 -463.5q0 -165 -38.5 -311.5t-103 -252t-147.5 -182t-172.5 -114.5t-177.5 -38q-58 0 -89 42.5t-31 111.5q0 88 12 206q-71 -167 -166 -265.5t-202 -98.5q-53 0 -106.5 27.5t-100 79t-75 138 t-26.5 192.5q2 123 40.5 240t107.5 213.5t179 155.5t243 59q51 0 116.5 -14t103.5 -40l195 30q-38 -149 -89 -688q-4 -41 -9 -74t-6.5 -46.5t-1.5 -30.5q0 -26 13 -26q72 0 136.5 95.5t102 242.5t37.5 299q0 488 -537 488q-125 0 -239 -37t-204 -102t-163.5 -153.5 t-122 -191.5t-74.5 -217t-26 -229q0 -138 33.5 -248t90.5 -182t136.5 -120t167 -68.5t187.5 -20.5q204 0 345 68l59 -171q-70 -53 -184.5 -84.5t-241.5 -31.5q-182 0 -335.5 55t-265 157.5t-174 257t-62.5 344.5zM840 484q0 -91 18.5 -139.5t67.5 -48.5q44 0 106 102 t108.5 230t57.5 212q-39 43 -125 43q-56 0 -102 -39.5t-73.5 -101t-42.5 -129t-15 -129.5z" />
<glyph unicode="A" horiz-adv-x="1345" d="M-123 -1l740 1531h450l227 -1530l-355 -1l-33 287h-522l-117 -286zM482 527h397l-76 675l-6 119l-39 -119z" />
<glyph unicode="B" horiz-adv-x="1352" d="M72 0l219 1530h187q41 1 146.5 8t161.5 7q508 0 508 -347q0 -153 -76.5 -258t-225.5 -136q134 -28 207 -110.5t73 -203.5q0 -506 -740 -506q-41 0 -155 8t-150 8h-155zM460 240q47 -7 122 -7t128.5 10t97.5 35.5t66 74t22 121.5q0 110 -62 152.5t-206 42.5q-61 0 -107 -4 zM556 907q45 -3 90 -3q141 0 212 61t71 193q0 82 -52 112t-154 30q-67 0 -112 -3z" />
<glyph unicode="C" horiz-adv-x="1192" d="M83 624q0 186 60 354.5t165 294t258 199.5t329 74q163 0 299 -56l53 -14l-102 -335q-121 106 -287 106q-87 0 -158 -35.5t-118 -95.5t-78.5 -141t-45.5 -168.5t-14 -181.5q0 -182 64.5 -268t210.5 -86q89 0 175.5 28.5t132.5 61.5l46 -249q-49 -38 -177.5 -83t-270.5 -45 q-121 0 -216 36.5t-155.5 97t-99.5 144.5t-55 173t-16 189z" />
<glyph unicode="D" horiz-adv-x="1423" d="M72 0l219 1530h156q42 0 191 8t196 8q155 0 268.5 -44t181 -127t99.5 -192.5t32 -250.5q0 -151 -32.5 -289t-100.5 -258.5t-166.5 -209.5t-238.5 -140t-308 -51q-46 0 -144 7q-155 9 -209 9h-144zM464 264q65 -21 155 -21q107 0 191 55t136 151t78.5 220t26.5 268 q0 104 -16.5 171.5t-54 106.5t-89.5 54.5t-130 15.5q-88 0 -153 -13z" />
<glyph unicode="E" horiz-adv-x="1204" d="M72 0l219 1530h914l-37 -275l-562 2l-48 -337l419 5l-36 -276l-421 9l-55 -388l633 10l-37 -280h-989z" />
<glyph unicode="F" horiz-adv-x="1080" d="M72 0l219 1530h857l-42 -275l-500 4l-53 -372l428 6l-36 -291l-432 7l-87 -609h-354z" />
<glyph unicode="G" horiz-adv-x="1427" d="M74 607q0 206 63.5 382.5t172.5 298t258 190t316 68.5q198 0 369 -56l95 -33l-74 -322q-51 39 -163 80.5t-235 41.5q-96 0 -173.5 -38.5t-126.5 -101t-82 -146.5t-46.5 -168.5t-14.5 -174.5v-5q0 -374 297 -374q130 0 199 33l45 288h-248l33 280h576l-107 -771 q-46 -5 -109 -23q-254 -72 -442 -72q-132 0 -237 36.5t-172.5 96t-112 141.5t-63 168.5t-18.5 180.5z" />
<glyph unicode="H" horiz-adv-x="1500" d="M60 0l219 1530h354l-95 -664h482l95 664h358l-219 -1530h-358l89 622h-482l-89 -622h-354z" />
<glyph unicode="I" horiz-adv-x="706" d="M98 0l219 1530h354l-219 -1530h-354z" />
<glyph unicode="J" horiz-adv-x="697" d="M-180 -239q120 30 192 122t91 203q36 175 71.5 421t77.5 573.5t59 449.5h356q-38 -253 -91.5 -632t-83.5 -579.5t-42 -243.5q-25 -99 -71.5 -175.5t-103 -124t-127.5 -78t-140 -42.5t-144 -12z" />
<glyph unicode="K" horiz-adv-x="1337" d="M72 0l219 1530h354l-95 -662l526 662h404l-607 -673q52 -98 152 -297.5t109 -216.5q110 -218 190 -344l-417 2q-19 28 -140 305l-126 292l-154 -171l-61 -427h-354z" />
<glyph unicode="L" horiz-adv-x="1068" d="M72 0l219 1530h354l-180 -1253l497 11l-42 -288h-848z" />
<glyph unicode="M" horiz-adv-x="1988" d="M-31 0l419 1530h515l68 -1053l6 -225l48 225l355 1053h517l-24 -1530h-353l89 1139l27 234l-74 -234l-437 -1142l-389 -15l-120 1157l-2 234l-48 -234l-248 -1139h-349z" />
<glyph unicode="N" horiz-adv-x="1500" d="M72 0l219 1530h307l356 -792l79 -260l13 260l97 792h342l-219 -1530h-297l-348 833l-99 275l3 -275l-115 -833h-338z" />
<glyph unicode="O" horiz-adv-x="1394" d="M66 578q0 196 52.5 371.5t147.5 308t239 210.5t316 78q132 0 237 -47.5t171 -130.5t100.5 -190.5t34.5 -231.5q0 -156 -32.5 -300t-96.5 -264t-153 -209t-208 -139t-256 -50q-135 0 -241.5 47t-173.5 128.5t-102 188t-35 230.5zM430 596q0 -191 53 -268.5t163 -77.5 q80 0 148.5 62.5t112.5 162t68.5 220t24.5 240.5q0 191 -53 268t-164 77q-80 0 -148.5 -63.5t-112 -164.5t-68 -220.5t-24.5 -235.5z" />
<glyph unicode="P" horiz-adv-x="1298" d="M72 0l218 1530h156q32 0 144 8t185 8q261 0 399 -110.5t139 -328.5q0 -129 -43.5 -241t-124.5 -196.5t-207 -133.5t-281 -49q-41 0 -99.5 1t-61.5 1l-70 -489h-354zM534 764q41 -12 129 -12q142 0 217 83.5t84 240.5q1 11 1 21q-1 97 -53 147q-58 56 -201 56 q-42 0 -100 -10z" />
<glyph unicode="Q" horiz-adv-x="1395" d="M66 578q0 196 52.5 371.5t147.5 308t239 210.5t316 78q132 0 237 -47.5t171 -130.5t100.5 -190.5t34.5 -231.5q0 -182 -44.5 -345.5t-126.5 -292t-205.5 -212.5t-272.5 -105q-1 -11 -1 -21q0 -27 10 -47q13 -27 46 -40.5t73.5 -18.5t102.5 -5q220 0 311 26v-203 q-43 -40 -164 -71t-221 -31q-52 0 -100 5.5t-95 19t-84.5 34.5t-66.5 54t-43 75q-12 36 -12 83q0 8 1 17q2 58 25 127q-209 38 -320 198t-111 385zM430 596q0 -191 53 -268.5t163 -77.5q80 0 148.5 62.5t112.5 162t68.5 220t24.5 240.5q0 191 -53 268t-164 77 q-80 0 -148.5 -63.5t-112 -164.5t-68 -220.5t-24.5 -235.5z" />
<glyph unicode="R" horiz-adv-x="1344" d="M72 0l218 1530h202q58 0 140 8t149 8q290 0 419 -99t129 -294q0 -89 -18 -167t-56 -147t-102 -120t-151 -78q88 -74 141 -274q69 -214 90 -270.5t49 -96.5h-392q-9 13 -18 39.5t-16 56t-22.5 92.5t-30.5 118q-30 123 -69 195t-66 72h-157l-85 -573h-354zM548 848 q54 -3 195 -3q68 0 118 28t76 73q25 46 37 94q10 40 10 82v14q-4 92 -61.5 128t-175.5 36q-79 0 -137 -10z" />
<glyph unicode="S" horiz-adv-x="1058" d="M-5 80l120 288q50 -39 135.5 -70t157.5 -31q204 0 204 156q0 63 -38 111q-38 50 -150 134q-256 193 -256 421q0 209 146 333t388 124q120 0 217.5 -26t143.5 -59l-112 -281q-35 35 -110 61t-149 26q-91 1 -138 -39q-48 -40 -48 -103q0 -31 12 -61q13 -32 43 -64.5 t57.5 -56.5t78.5 -64q45 -36 75 -62t72 -70.5t67.5 -84.5t44 -94.5t18.5 -109.5q0 -229 -158 -351.5t-425 -122.5q-110 0 -234 32.5t-162 63.5z" />
<glyph unicode="T" horiz-adv-x="1153" d="M136 1255l44 275h1067l-40 -275l-352 11l-181 -1266h-360l181 1266z" />
<glyph unicode="U" horiz-adv-x="1440" d="M115 432v10q0 68 13 155l133 933h353l-126 -888q-11 -80 -11 -192q1 -111 45 -153t153 -42q84 0 137.5 33t89.5 116t58 230l127 896h352l-130 -933q-46 -330 -206.5 -471.5t-481.5 -141.5q-255 0 -380 117.5t-126 330.5z" />
<glyph unicode="V" horiz-adv-x="1233" d="M103 1530h354l118 -980l17 -262l77 262l356 980h375l-660 -1530h-412z" />
<glyph unicode="W" horiz-adv-x="1803" d="M97 1530h357l59 -980l20 -222l68 222l257 641l-36 339h345l60 -980l23 -222l53 222l334 980h364l-595 -1530h-413l-57 546l-18 167l-61 -167l-200 -546h-375z" />
<glyph unicode="X" horiz-adv-x="1244" d="M-99 0l563 808l-321 722h380l177 -493l317 493h386l-544 -795l347 -735l-386 -1l-201 531l-322 -530h-396z" />
<glyph unicode="Y" horiz-adv-x="1164" d="M83 1530h372l141 -525l25 -134l58 134l284 525h393l-600 -940l-85 -590h-354l85 590z" />
<glyph unicode="Z" horiz-adv-x="1158" d="M-68 89l774 1099l93 67l-587 -10l46 285h976l23 -86l-742 -1088l-84 -74l618 10l-47 -292h-1043z" />
<glyph unicode="[" horiz-adv-x="854" d="M130 -77q0 57 8 110l208 1480q21 148 80.5 218.5t175.5 70.5q61 0 143.5 -12t134.5 -24l52 -11l-26 -175h-255l-214 -1610h255l-22 -173q-137 -39 -214 -49q-61 -7 -129 -7q-93 0 -145 49t-52 133z" />
<glyph unicode="\" horiz-adv-x="854" d="M6 1597h268l577 -1959h-269z" />
<glyph unicode="]" horiz-adv-x="854" d="M-16 -199l26 175h255l214 1610h-255l22 173q137 39 214 49q62 7 129 7q93 0 145 -49t52 -133q0 -57 -8 -110l-208 -1480q-21 -148 -80.5 -218.5t-175.5 -70.5q-61 0 -143.5 12t-134.5 24z" />
<glyph unicode="^" horiz-adv-x="1364" d="M126 510l531 1021h267l267 -1021h-271l-161 650l-358 -650h-275z" />
<glyph unicode="_" horiz-adv-x="1335" d="M-111 -388l20 201h1378l-20 -201h-1378z" />
<glyph unicode="`" horiz-adv-x="546" d="M-11 1574l209 200l334 -449l-124 -99q-57 22 -152 94t-172 146t-95 108z" />
<glyph unicode="a" horiz-adv-x="1268" d="M70 412q0 112 27.5 219t85.5 202.5t140 167t198 113.5t252 42q117 0 248 -45l184 45l-161 -1156h-320l11 248q-23 -50 -52.5 -93.5t-70 -83.5t-94 -63.5t-112.5 -23.5q-91 0 -158 34t-105 94.5t-55.5 135t-17.5 164.5zM442 433q0 -209 89 -209q47 0 99 68t87.5 150.5 t58.5 163.5l47 335q-29 5 -75 5q-74 0 -134 -46t-96.5 -120.5t-56 -164t-19.5 -182.5z" />
<glyph unicode="b" horiz-adv-x="1290" d="M76 0l225 1634h343l-85 -658l-21 -121q20 53 49.5 102t71.5 96t100.5 75t124.5 28q91 0 158 -34.5t105 -96t55.5 -136.5t17.5 -165q0 -141 -45 -271.5t-130 -236t-222 -169t-306 -63.5q-61 0 -133.5 14.5t-122.5 33.5v2zM460 199q31 -5 81 -5q98 0 169.5 78.5 t103.5 191.5t32 239q0 209 -88 209q-39 0 -81.5 -45t-76 -112t-58.5 -134t-38 -122l1 56z" />
<glyph unicode="c" horiz-adv-x="956" d="M74 442q0 155 47 288.5t129 226.5t197 146t248 53q58 0 137 -12.5t121 -30.5l-86 -342q-15 15 -42.5 36.5t-74.5 46t-82 24.5q-98 0 -164 -97.5t-66 -282.5q0 -136 32 -196.5t114 -60.5q58 0 128.5 37t106.5 78l89 -171q-23 -35 -58 -67.5t-85.5 -64t-122.5 -50.5 t-154 -19q-89 0 -161 27t-118.5 71.5t-77.5 105t-44 123.5t-13 131z" />
<glyph unicode="d" horiz-adv-x="1274" d="M70 412q0 112 27.5 219t85.5 202.5t140 167t198 113.5t252 42q39 0 80 -6l67 484h344l-211 -1634h-319l14 279q-21 -53 -50.5 -101t-71 -93.5t-99 -73t-121.5 -27.5q-91 0 -158 34t-105 94.5t-55.5 135t-17.5 164.5zM442 433q0 -205 89 -205q37 0 77 40.5t73 103.5 t58 126.5t41 121.5l44 317q-33 9 -76 9q-74 0 -134 -46t-96.5 -120.5t-56 -164t-19.5 -182.5z" />
<glyph unicode="e" horiz-adv-x="1112" d="M73 442q0 153 50 286.5t136.5 227t205 147t251.5 53.5q172 0 256 -69t84 -194q0 -87 -32 -159.5t-85 -125t-133.5 -96t-164.5 -73t-192 -56.5q0 -79 31 -118t114 -39q88 0 184.5 53.5t138.5 109.5l92 -171q-24 -35 -68 -73t-107 -75.5t-149.5 -61.5t-178.5 -24 q-90 0 -163.5 25t-123 68t-83 101.5t-48.5 124.5t-15 139zM444 561q95 6 181.5 94.5t86.5 203.5q0 53 -17.5 77t-57.5 24q-45 0 -83 -42t-60.5 -105.5t-35.5 -129.5t-14 -122z" />
<glyph unicode="f" horiz-adv-x="765" d="M110 0l127 924h-122l41 216h111l19 105q28 190 159.5 307.5t330.5 117.5q115 0 179 -26l-62 -238q-13 13 -51 31q-35 17 -70 17h-4q-49 -1 -81.5 -32t-48.5 -123l-28 -159h189l-27 -216h-187q-93 -675 -125 -906l-2 -18h-348z" />
<glyph unicode="g" horiz-adv-x="1269" d="M70 412q0 112 27.5 219t85.5 202.5t140 167t198 113.5t252 42q124 0 247 -45l188 45l-164 -1185q-16 -113 -62 -200.5t-108 -141t-145 -87.5t-163.5 -46.5t-171.5 -12.5q-70 0 -154 15t-117 30l52 255q22 -21 114.5 -56t171.5 -35q101 0 148.5 54t66.5 157l63 353 q-23 -51 -52.5 -96t-70 -86.5t-95 -65.5t-115.5 -24q-91 0 -158 34t-105 94.5t-55.5 135t-17.5 164.5zM442 433q0 -205 89 -205q36 0 75 38.5t71 98.5t57 122t42 120l46 334q-29 5 -74 5q-74 0 -134 -46t-96.5 -120.5t-56 -164t-19.5 -182.5z" />
<glyph unicode="h" horiz-adv-x="1314" d="M78 0l220 1634h348l-75 -562l-29 -151q68 110 164.5 172.5t212.5 62.5q136 0 206.5 -70.5t70.5 -231.5q0 -50 -40 -343q-12 -90 -38 -269.5t-34 -241.5h-357q46 308 70 510q25 204 28 278v13q1 43 -17 63q-20 23 -64 23q-55 0 -118 -52t-107 -137l-94 -698h-347z" />
<glyph unicode="i" horiz-adv-x="664" d="M80 0l156 1140h359l-158 -1140h-357zM344 1622q58 58 150 59q79 -1 129 -49q48 -47 48 -112v-5q-2 -88 -58.5 -145t-159.5 -57q-69 0 -119 49q-50 48 -50 115q-1 84 60 145z" />
<glyph unicode="j" horiz-adv-x="665" d="M-273 -494l88 181q13 -9 38 -9q29 0 54.5 7t44.5 17.5t36 31.5t28 38t22 48.5t17 53t13.5 61.5t11 62.5l10.5 67.5l147 1075h359l-158 -1140q-23 -168 -102.5 -289.5t-190 -180t-238.5 -58.5q-136 0 -180 34zM346 1622q59 59 150 59q79 0 129 -49q48 -46 48 -112v-5 q-2 -88 -58.5 -145t-159.5 -57q-69 0 -119 49q-50 48 -50 115q0 85 60 145z" />
<glyph unicode="k" horiz-adv-x="1226" d="M78 0l220 1634h349l-221 -1634h-348zM543 630h3l-3 1q64 35 114 88.5t81.5 108t70.5 140.5q37 86 59 172h353q-4 -83 -40 -171q-48 -118 -134 -209t-172 -138l324 -622h-408z" />
<glyph unicode="l" horiz-adv-x="665" d="M83 0l220 1634h359l-222 -1634h-357z" />
<glyph unicode="m" horiz-adv-x="1965" d="M76 0l156 1140h344l-15 -204q70 104 166 162t210 58q115 0 182.5 -54t82.5 -176q70 108 167.5 169t214.5 61q130 0 199 -70.5t69 -231.5q0 -51 -40 -344q-15 -108 -42.5 -303t-29.5 -207h-356q44 316 69 510q26 217 29 278v11q0 88 -81 88q-52 0 -108.5 -46.5 t-99.5 -124.5q-3 -26 -7.5 -58.5t-10.5 -76t-9 -70.5q-12 -90 -38 -269.5t-34 -241.5h-357q46 308 70 510q25 204 28 278v13q1 43 -17 63q-20 23 -64 23q-54 0 -116.5 -50.5t-106.5 -131.5l-98 -705h-357z" />
<glyph unicode="n" horiz-adv-x="1319" d="M76 0l156 1140h341l-13 -206q68 104 162.5 163t206.5 59q136 0 206.5 -70.5t70.5 -231.5q0 -50 -40 -343q-12 -90 -38 -269.5t-34 -241.5h-357q46 308 70 510q25 204 28 278v13q1 43 -17 63q-20 23 -64 23q-55 0 -118 -52t-107 -137l-96 -698h-357z" />
<glyph unicode="o" horiz-adv-x="1181" d="M65 469q0 138 41 260.5t118 218.5t200.5 152t276.5 56q87 0 157.5 -25.5t118 -70t79 -106.5t46 -132.5t14.5 -150.5q0 -138 -40.5 -260.5t-118 -218.5t-200.5 -152t-276 -56q-108 0 -190 38.5t-130.5 106.5t-72 153.5t-23.5 186.5zM419 429q0 -231 110 -231 q60 0 105.5 45.5t71.5 120.5t39 161.5t13 179.5q0 126 -27.5 181.5t-82.5 55.5q-58 0 -103.5 -48t-72 -125t-40 -164t-13.5 -176z" />
<glyph unicode="p" horiz-adv-x="1285" d="M8 -492l223 1632h327l-3 -234q32 66 73 118.5t108 92t143 39.5q91 0 158 -33.5t105 -93.5t55.5 -134t17.5 -164q0 -141 -45 -272.5t-130 -238.5t-222 -171.5t-306 -64.5q-40 0 -84 6l-68 -482h-352zM458 199q30 -5 78 -5q74 0 134 46.5t96.5 122t56 165t19.5 182.5 q0 202 -88 202q-50 0 -104 -72t-90.5 -158t-56.5 -165z" />
<glyph unicode="q" horiz-adv-x="1278" d="M70 412q0 112 27.5 219t85.5 202.5t140 167t198 113.5t252 42q61 0 133 -14t121 -32l180 46l-220 -1648h-350l65 492l45 276q-22 -53 -51 -100.5t-71 -92.5t-98.5 -72t-120.5 -27q-91 0 -158 34t-105 94.5t-55.5 135t-17.5 164.5zM442 433q0 -205 89 -205q46 0 96 63.5 t85 141.5t60 160l47 349q-29 4 -71 4q-74 0 -134 -46t-96.5 -120.5t-56 -164t-19.5 -182.5z" />
<glyph unicode="r" horiz-adv-x="905" d="M78 0l156 1140h344l-16 -228l-1 -8l1 1q35 103 114.5 177t176.5 74q51 0 71 -14l-63 -361q-10 12 -40.5 19t-59.5 7q-65 0 -117 -20.5t-106 -67.5l-3 3l-100 -722h-357z" />
<glyph unicode="s" horiz-adv-x="977" d="M56 53l56 280q32 -31 119.5 -65.5t147.5 -34.5q145 0 145 83q0 26 -21 53.5t-46.5 47.5t-70.5 53.5t-70 54.5q-72 61 -112.5 130t-40.5 169q0 153 126 242.5t337 89.5q74 0 157 -13t110 -24l-38 -299q-31 32 -100 60.5t-136 28.5q-62 0 -93.5 -22.5t-31.5 -56.5 q0 -20 6 -36t22.5 -33.5t32 -30.5t48 -39t57.5 -47q108 -83 154.5 -150.5t46.5 -162.5q0 -77 -26.5 -137.5t-71.5 -99t-107 -64t-128 -36t-141 -10.5q-96 0 -198.5 22.5t-132.5 46.5z" />
<glyph unicode="t" horiz-adv-x="839" d="M125 195q0 54 21 203l72 526h-84l36 216h105l98 276h267l-37 -276h222l-23 -216h-227l-70 -507q-14 -107 -14 -129q0 -29 14.5 -46.5t55.5 -17.5q33 0 87.5 25.5t87.5 56.5l54 -170q-194 -156 -430 -156q-109 0 -172 56.5t-63 158.5z" />
<glyph unicode="u" horiz-adv-x="1292" d="M121 235v6q0 104 36 353l75 546h353l-70 -551q-27 -201 -27 -257q0 -47 20 -72.5t49 -25.5q51 0 107 52.5t101 130.5l101 723h357l-156 -1140h-318l6 194q-57 -91 -150 -152.5t-203 -61.5q-58 0 -105.5 13t-88 41.5t-63.5 79.5t-24 121z" />
<glyph unicode="v" horiz-adv-x="1138" d="M93 1140h351l62 -665l14 -199l49 65q134 213 171 476q27 162 27 323h329q11 -66 11 -158q0 -171 -78 -353.5t-200.5 -336.5t-280.5 -284l-20 -17l-278 -12l-55 376z" />
<glyph unicode="w" horiz-adv-x="1763" d="M92 1140h361l59 -665l13 -209l59 76q63 97 116 221t75 247l-34 330h343l48 -665l13 -209l59 76q129 203 172 475q26 172 26 323h318q11 -88 11 -158q0 -498 -573 -974l-20 -17l-259 -12l-54 360q-107 -174 -280 -331l-20 -17l-275 -12l-55 376z" />
<glyph unicode="x" horiz-adv-x="1053" d="M-105 0l451 601l-300 539h408l128 -315l195 315h356l-423 -581l323 -559h-408l-147 332l-215 -332h-368z" />
<glyph unicode="y" horiz-adv-x="1140" d="M-92 -442l89 244q36 -25 85.5 -43t88.5 -18q85 0 148 51.5t152 187.5h-206l-56 375l-114 785h352l74 -685l33 -318q65 134 118 301q48 139 67 239t32 301q3 43 3 162h320q6 -30 6 -153q0 -303 -149 -655q-112 -265 -269 -480q-15 -20 -42.5 -58.5t-41.5 -57.5 t-39.5 -51.5t-41.5 -49.5t-42.5 -42t-48.5 -38t-52.5 -29.5t-60.5 -24t-67 -13t-78 -5.5q-134 0 -260 75z" />
<glyph unicode="z" horiz-adv-x="984" d="M-45 45l554 790l52 38h-428l37 267h822l35 -44l-545 -793l-44 -31h457l-28 -272h-877z" />
<glyph unicode="{" horiz-adv-x="1024" d="M51 681l32 203q15 4 48.5 11.5t53.5 12t46 13.5t44 18q26 14 44 34.5t21 38.5l88 538q25 148 88 205t197 57q49 0 131.5 -14t140.5 -28l58 -15l-31 -176h-276l-94 -619q-6 -39 -26 -63.5t-62 -50.5q-13 -8 -64 -26.5t-96 -33.5l-45 -15q19 -10 65.5 -31t79 -38.5 t45.5 -30.5q32 -33 38 -51q8 -22 3 -58l-92 -592h275l-22 -165q-197 -77 -365 -77q-105 0 -150.5 46.5t-44.5 133.5l87 638q0 17 -14.5 39.5t-37.5 37.5q-43 29 -165 58z" />
<glyph unicode="|" horiz-adv-x="854" d="M320 -186v1966h253v-1966h-253z" />
<glyph unicode="}" horiz-adv-x="1024" d="M30 -209l31 176h276l94 619q6 39 26 63.5t62 50.5q13 8 64 26.5t96 33.5l45 15q-19 10 -65.5 31t-79 38.5t-45.5 30.5q-32 33 -38 51q-8 22 -3 58l92 592h-275l22 165q197 77 365 77q105 0 150.5 -46.5t44.5 -133.5l-87 -638q0 -17 14.5 -39.5t37.5 -37.5q43 -29 165 -58 l-32 -203q-15 -4 -48.5 -11.5t-53.5 -12t-46 -13.5t-44 -18q-26 -14 -44 -34.5t-21 -38.5l-88 -538q-25 -148 -88 -205t-197 -57q-49 0 -131.5 14t-140.5 28z" />
<glyph unicode="~" horiz-adv-x="1137" d="M76 886q24 78 130 149t212 71q53 0 102.5 -17.5t86 -43t70.5 -51t71 -43t72 -17.5q106 0 182 107l134 -139q-21 -86 -122.5 -158t-209.5 -72q-56 0 -104.5 18.5t-83.5 45.5t-67.5 54t-71.5 45.5t-81 18.5q-87 0 -172 -109z" />
<glyph />
<glyph unicode="&#xa1;" horiz-adv-x="686" d="M18 -434l243 1290h258l-136 -1290h-365zM256 1155q0 98 58 158t155 60q72 0 114 -42t42 -110q0 -88 -57.5 -151.5t-150.5 -63.5q-83 0 -122 41.5t-39 107.5z" />
<glyph unicode="&#xa2;" horiz-adv-x="1077" d="M91 442q0 266 129 454t341 241l66 291h240l-64 -278q111 -13 167 -37l-86 -342q-15 15 -42.5 36.5t-74.5 46t-82 24.5q-98 0 -164 -97.5t-66 -282.5q0 -136 32 -196.5t114 -60.5q58 0 128.5 37t106.5 78l89 -171q-46 -69 -132.5 -125.5t-210.5 -70.5l-48 -264h-240 l52 285q-89 32 -148.5 103.5t-83 153.5t-23.5 175z" />
<glyph unicode="&#xa3;" horiz-adv-x="1426" d="M-62 117q0 86 86.5 142.5t187.5 57.5q53 67 69 164l41 238h-169l30 232h179l26 149q12 68 37 130t69 120.5t102 101t142 68t184 25.5q262 0 413 -119l-172 -256q-12 38 -76 90.5t-147 52.5q-92 0 -144 -54t-73 -184l-21 -124h306l-30 -232h-314l-28 -173 q-16 -94 -45 -160.5t-60 -98.5q52 -17 151 -34.5t169 -17.5q125 0 192.5 39.5t67.5 105.5q0 36 -25.5 71.5t-46.5 46.5l209 169q73 -34 121 -121.5t48 -168.5q0 -54 -9 -101.5t-39 -104t-80 -96.5t-141 -67.5t-213 -27.5q-117 0 -234 22t-222 49.5t-166 33.5 q-39 -47 -100.5 -76t-114.5 -29q-79 0 -119.5 41t-40.5 96z" />
<glyph unicode="&#xa4;" horiz-adv-x="1540" d="M201 1135l141 142l211 -213q107 64 229 64q129 0 239 -70l207 206l141 -142l-209 -209q62 -103 62 -223q0 -126 -66 -231l211 -211l-142 -141l-211 210q-106 -65 -232 -65q-122 0 -225 61l-211 -211l-142 141l208 208q-70 110 -70 239q0 127 68 235zM576 690 q0 -89 60.5 -152.5t145.5 -63.5t145.5 63.5t60.5 152.5t-60.5 152.5t-145.5 63.5t-145.5 -63.5t-60.5 -152.5z" />
<glyph unicode="&#xa5;" horiz-adv-x="1469" d="M106 324l19 182h407l22 174h-408l19 182h318l-259 668h355l167 -559l28 -109l46 109l275 559h422l-461 -668h304l-19 -182h-410l-25 -174h411l-16 -182h-421l-45 -324h-367l41 324h-403z" />
<glyph unicode="&#xa6;" horiz-adv-x="854" d="M320 -186v864h253v-864h-253zM320 916v864h253v-864h-253z" />
<glyph unicode="&#xa7;" horiz-adv-x="1194" d="M67 -72l57 251q48 -54 170.5 -84t205.5 -30q80 0 126 16t61 40t16 61q0 14 -2.5 25.5t-10.5 23t-15 20.5t-23 20t-27 18t-34 19t-37.5 19t-44.5 21.5t-47 23.5q-362 183 -363 458q-1 177 187 293q-39 72 -39 171q0 165 139 272t392 107q130 0 235 -35t146 -70l-67 -221 q-34 46 -131.5 66.5t-176.5 20.5q-108 0 -161 -32t-54 -86q0 -18 3.5 -32.5t15.5 -28t21.5 -23t34 -23t40.5 -22t53 -26.5t59 -29q165 -83 263 -200.5t99 -264.5q0 -85 -47.5 -170t-128.5 -141q36 -68 37 -164q0 -58 -19.5 -112t-61.5 -103t-103 -85t-150.5 -57.5 t-197.5 -21.5q-127 0 -251 40t-169 75zM388 873q-1 -76 49 -131t201 -138q24 -12 66 -32.5t76 -38.5t62 -35q34 50 35 115q2 76 -48 131t-201 138q-18 9 -65.5 32.5t-80 40t-60.5 34.5q-33 -53 -34 -116z" />
<glyph unicode="&#xa8;" horiz-adv-x="817" d="M-7 1505q2 84 51.5 140t132.5 56q69 0 113 -49t42 -112q-2 -89 -49 -145.5t-140 -56.5q-59 0 -105.5 52t-44.5 115zM467 1505q2 85 50.5 140.5t130.5 55.5q69 0 114.5 -49t43.5 -112q-2 -89 -50.5 -145.5t-140.5 -56.5q-60 0 -105 52t-43 115z" />
<glyph unicode="&#xa9;" horiz-adv-x="2091" d="M175 963q0 179 68 341t184 279t277.5 186t340.5 69t340.5 -69t277.5 -186t184.5 -279t68.5 -341q0 -180 -68.5 -342.5t-184.5 -280t-277.5 -187t-340.5 -69.5t-340.5 69.5t-277.5 187t-184 280t-68 342.5zM317 963q0 -205 93.5 -376.5t261.5 -272.5t373 -101t373 101 t261.5 272.5t93.5 376.5q0 153 -55.5 291t-151 238.5t-231.5 160t-290 59.5t-290 -59.5t-231.5 -160t-151 -238.5t-55.5 -291zM599 954q-2 221 128.5 361t366.5 140q77 0 147 -17t107 -38l-37 -205q-32 23 -92.5 39t-120.5 16q-109 0 -178 -71t-70 -187q-1 -158 66 -233 t183 -75q137 0 225 63l44 -173q-49 -43 -136 -73t-182 -30q-133 0 -237 67t-158.5 176.5t-55.5 239.5z" />
<glyph unicode="&#xaa;" horiz-adv-x="963" d="M92 998q0 115 45.5 221t123.5 184.5t191 126t240 47.5q100 0 198 -32l161 28l-161 -847h-218l-7 154q-149 -154 -310 -154q-125 0 -194 73t-69 199zM391 1030q0 -60 17.5 -87t65.5 -27q77 0 173 115l88 395q-24 6 -49 6q-61 0 -112 -29t-84 -73.5t-56 -100t-33 -106 t-10 -93.5z" />
<glyph unicode="&#xab;" horiz-adv-x="1996" d="M174 530l32 190l742 396l58 -205l-430 -306l364 -301l-110 -172zM980 530l32 190l742 396l58 -205l-430 -306l364 -301l-110 -172z" />
<glyph unicode="&#xac;" horiz-adv-x="1370" d="M202 626l26 227h960l-62 -531h-257l36 304h-703z" />
<glyph unicode="&#xad;" horiz-adv-x="1706" />
<glyph unicode="&#xae;" horiz-adv-x="2091" d="M171 962q0 239 116.5 440.5t317.5 318.5t440 117q179 0 341 -69t279 -186t186 -279.5t69 -341.5t-69 -342t-186 -280.5t-279 -187t-341 -69.5q-239 0 -440 117.5t-317.5 319.5t-116.5 442zM313 962q0 -153 56.5 -291.5t153.5 -239t233 -159.5t289 -59t289 59t233 159.5 t153.5 239t56.5 291.5q0 204 -95.5 375.5t-264 272t-372.5 100.5t-372.5 -100.5t-264 -272t-95.5 -375.5zM700 486v963h97q36 0 114.5 3t149.5 3q178 0 272.5 -76t94.5 -200q0 -263 -194 -319q36 -20 66 -55t46.5 -66t40.5 -79.5t39 -73.5q40 -66 66 -99h-255 q-9 10 -16.5 22t-17.5 33t-15 31q-8 16 -29.5 67t-37 81t-44 65t-61.5 49q-13 -1 -91 -1v-348h-225zM925 998q34 -7 120 -7q76 0 116.5 40.5t40.5 118.5q0 71 -41 106t-135 34q-68 0 -101 -11v-281z" />
<glyph unicode="&#xaf;" horiz-adv-x="620" d="M26 1405l18 209h577l-18 -209h-577z" />
<glyph unicode="&#xb0;" horiz-adv-x="957" d="M206 1275q2 154 109 256.5t268 102.5q154 0 258 -105t101 -254q-2 -155 -110.5 -257.5t-270.5 -102.5q-153 0 -255.5 105t-99.5 255zM410 1276q-2 -72 45 -123.5t115 -51.5q72 0 119.5 50t48.5 125q1 72 -46 122.5t-115 50.5q-72 0 -119 -49t-48 -124z" />
<glyph unicode="&#xb1;" horiz-adv-x="1356" d="M163 0l17 207h905l-16 -207h-906zM182 654l35 263h249l117 -11l9 139l30 279h272l-26 -279l-25 -138l98 10h275l-35 -263h-274l-97 7l-6 -135l-34 -276h-273l33 276l25 135l-124 -7h-249z" />
<glyph unicode="&#xb2;" horiz-adv-x="1163" d="M151 721q51 27 124 77t152 116.5t147.5 134t112.5 135.5t44 116q0 111 -112 111q-171 0 -279 -98l-112 145q49 68 182 128.5t279 60.5q182 0 284 -77t102 -212q0 -138 -125.5 -311t-325.5 -281l465 26l-17 -246h-848z" />
<glyph unicode="&#xb3;" horiz-adv-x="1071" d="M111 565l44 191q42 -27 114.5 -44t149.5 -16q111 2 189.5 49t78.5 137q0 50 -29.5 76.5t-79.5 29.5l-238 -59l35 209q155 38 216 79.5t61 98.5q0 33 -30 65t-93 32q-135 0 -227 -67l-75 180q83 58 191.5 88t219.5 30q80 0 141.5 -16t97 -40.5t58.5 -57.5t30.5 -62.5 t7.5 -59.5q0 -218 -187 -291q116 -20 165 -89t49 -158q0 -116 -70 -205t-186.5 -135t-259.5 -46q-103 0 -210 22.5t-163 58.5z" />
<glyph unicode="&#xb4;" horiz-adv-x="565" d="M19 1325l334 449l209 -200q-18 -34 -95 -108t-172 -146t-152 -94z" />
<glyph unicode="&#xb5;" horiz-adv-x="1364" d="M51 -372l165 1173q6 46 -1.5 77.5t-27.5 31.5q-41 0 -87 -46l-48 165q31 31 129.5 79t197.5 48q102 0 162 -50.5t48 -151.5l-64 -519q-23 -194 101 -194q47 0 106.5 49.5t69.5 122.5l94 727h352l-109 -862q-5 -37 5.5 -60t27.5 -23q27 0 59 21.5t51 49.5l78 -133 q-29 -30 -40.5 -41t-46 -37.5t-62 -38.5t-72.5 -23t-95 -11q-83 0 -131.5 30.5t-64.5 109.5q-83 -138 -221 -138q-47 0 -101 17t-76 59l-64 -432h-335z" />
<glyph unicode="&#xb6;" horiz-adv-x="1364" d="M80 1073q-2 83 18.5 155.5t68 136.5t120 109t182 71t247.5 26q88 0 214 -9.5t180 -9.5h348l-25 -192l-167 -33l-175 -1327h-279l171 1322h-194l-173 -1322h-276l102 678q-158 4 -258.5 116.5t-103.5 278.5z" />
<glyph unicode="&#xb7;" horiz-adv-x="686" d="M149 769q0 88 57.5 151.5t150.5 63.5q83 0 122 -41.5t39 -107.5q0 -98 -58 -158t-155 -60q-72 0 -114 42t-42 110z" />
<glyph unicode="&#xb8;" horiz-adv-x="484" d="M-63 -436l36 203q34 -16 79 -16q86 0 132 26t50 99q6 105 -7 154l100 4l89 -4q21 -27 41.5 -116.5t20.5 -151.5q0 -107 -72 -170t-229 -63q-45 0 -134.5 12t-105.5 23z" />
<glyph unicode="&#xb9;" horiz-adv-x="1020" d="M282 1466q100 25 237.5 85.5t178.5 93.5l169 -21l-148 -1078h-305l112 814l-231 -52z" />
<glyph unicode="&#xba;" horiz-adv-x="946" d="M100 1071q0 120 44 219.5t118 164t168 99.5t197 35q171 0 273.5 -94t102.5 -261q0 -124 -43.5 -224t-118 -163.5t-170.5 -97t-205 -33.5q-156 0 -261 96t-105 259zM390 1076q0 -192 105 -192q53 0 93 25.5t62.5 63t36.5 89t18.5 95t4.5 89.5q0 96 -24 139t-86 43 q-58 0 -101.5 -37.5t-65.5 -95.5t-32.5 -113.5t-10.5 -105.5z" />
<glyph unicode="&#xbb;" horiz-adv-x="1996" d="M213 327l430 306l-364 301l110 172l656 -398l-32 -190l-742 -396zM1019 327l430 306l-364 301l110 172l656 -398l-32 -190l-742 -396z" />
<glyph unicode="&#xbc;" horiz-adv-x="2560" d="M312 1466q100 25 237.5 85.5t178.5 93.5l169 -21l-148 -1078h-305l112 814l-231 -52zM728 0l681 1530h259l-681 -1530h-259zM1306 184l550 926l68 1l213 -104l-445 -669l-66 -86l302 10l35 249l267 23l-32 -262l192 7l-24 -223h-194l-35 -293h-278l40 293h-532z" />
<glyph unicode="&#xbd;" horiz-adv-x="2560" d="M312 1466q100 25 237.5 85.5t178.5 93.5l169 -21l-148 -1078h-305l112 814l-231 -52zM728 0l681 1530h259l-681 -1530h-259zM1385 6q51 27 124 77t152 116.5t147.5 134t112.5 135.5t44 116q0 111 -112 111q-171 0 -279 -98l-112 145q49 68 182 128.5t279 60.5 q182 0 284 -77t102 -212q0 -138 -125.5 -311t-325.5 -281l465 26l-17 -246h-848z" />
<glyph unicode="&#xbe;" horiz-adv-x="2560" d="M68 622l44 191q42 -27 114.5 -44t149.5 -16q111 2 189.5 49t78.5 137q0 50 -29.5 76.5t-79.5 29.5l-238 -59l35 209q155 38 216 79.5t61 98.5q0 33 -30 65t-93 32q-135 0 -227 -67l-75 180q83 58 191.5 88t219.5 30q80 0 141.5 -16t97 -40.5t58.5 -57.5t30.5 -62.5 t7.5 -59.5q0 -218 -187 -291q116 -20 165 -89t49 -158q0 -116 -70 -205t-186.5 -135t-259.5 -46q-103 0 -210 22.5t-163 58.5zM728 0l681 1530h259l-681 -1530h-259zM1306 184l550 926l68 1l213 -104l-445 -669l-66 -86l302 10l35 249l267 23l-32 -262l192 7l-24 -223h-194 l-35 -293h-278l40 293h-532z" />
<glyph unicode="&#xbf;" horiz-adv-x="1068" d="M46 87q0 87 25.5 159.5t67 120.5t94.5 90t108.5 70t108.5 58t94.5 56.5t67 63t25.5 79.5q0 21 -8.5 45t-19.5 46t-13 30l167 66l17 -1q47 -32 85 -104.5t38 -138.5q0 -94 -51.5 -159t-200.5 -139q-208 -93 -261 -178q-23 -66 -23 -127q0 -87 83.5 -147.5t220.5 -60.5 q116 0 207 23l-56 -230q-25 -22 -89.5 -37.5t-125.5 -15.5q-142 0 -251 32.5t-176 91.5t-100.5 136t-33.5 171zM432 1245q0 98 58 158t155 60q72 0 114 -42t42 -110q0 -88 -57.5 -151.5t-150.5 -63.5q-83 0 -122 41.5t-39 107.5z" />
<glyph unicode="&#xc0;" horiz-adv-x="1345" d="M-123 -1l740 1531h450l227 -1530l-355 -1l-33 287h-522l-117 -286zM461 1827l210 187l279 -342l-143 -122q-80 30 -194.5 118t-151.5 159zM482 527h397l-76 675l-6 119l-39 -119z" />
<glyph unicode="&#xc1;" horiz-adv-x="1345" d="M-123 -1l740 1531h450l227 -1530l-355 -1l-33 287h-522l-117 -286zM482 527h397l-76 675l-6 119l-39 -119zM723 1672l279 342l210 -187q-37 -71 -151.5 -159t-194.5 -118z" />
<glyph unicode="&#xc2;" horiz-adv-x="1345" d="M-123 -1l740 1531h450l227 -1530l-355 -1l-33 287h-522l-117 -286zM457 1666l371 348h180l212 -337l-145 -78l-183 167l-287 -167zM482 527h397l-76 675l-6 119l-39 -119z" />
<glyph unicode="&#xc3;" horiz-adv-x="1345" d="M-123 -1l740 1531h450l227 -1530l-355 -1l-33 287h-522l-117 -286zM440 1783q35 71 130 134t176 63q48 0 87 -15t65 -36t49.5 -42t50.5 -36t57 -15t54.5 8.5t47 28.5t34.5 32.5t34 40.5l119 -145q-31 -75 -123 -142t-177 -67q-54 0 -96 14.5t-68.5 35.5t-50 42t-53.5 36 t-66 16q-78 1 -164 -89zM482 527h397l-76 675l-6 119l-39 -119z" />
<glyph unicode="&#xc4;" horiz-adv-x="1345" d="M-123 -1l740 1531h450l227 -1530l-355 -1l-33 287h-522l-117 -286zM434 1799q2 84 51.5 140t132.5 56q69 0 113 -49t42 -112q-2 -89 -49 -145.5t-140 -56.5q-59 0 -105.5 52t-44.5 115zM482 527h397l-76 675l-6 119l-39 -119zM908 1799q2 85 50.5 140.5t130.5 55.5 q69 0 114.5 -49t43.5 -112q-2 -89 -50.5 -145.5t-140.5 -56.5q-60 0 -105 52t-43 115z" />
<glyph unicode="&#xc5;" horiz-adv-x="1345" d="M-123 -1l732 1515q-119 62 -119 197q0 67 26 121t66 87.5t93.5 55.5t104 30.5t100.5 8.5q139 0 222.5 -59t83.5 -174q0 -165 -142 -251h23l227 -1530l-355 -1l-33 287h-522l-117 -286zM482 527h397l-76 675l-6 119l-39 -119zM686 1734q0 -52 43 -88t96 -36q70 0 118 32.5 t48 110.5q0 53 -41 89t-95 36q-68 0 -118.5 -35t-50.5 -109z" />
<glyph unicode="&#xc6;" horiz-adv-x="1984" d="M-121 0l763 1328l-242 32l28 170h1557l-37 -275l-562 2l-48 -337l419 5l-36 -276l-421 9l-55 -388l633 10l-37 -280h-989l42 296h-465l-158 -296h-392zM563 547h367l104 723l-80 8z" />
<glyph unicode="&#xc7;" horiz-adv-x="1204" d="M95 624q0 186 60 354.5t165 294t258 199.5t329 74q163 0 299 -56l53 -14l-102 -335q-121 106 -287 106q-87 0 -158 -35.5t-118 -95.5t-78.5 -141t-45.5 -168.5t-14 -181.5q0 -182 64.5 -268t210.5 -86q89 0 175.5 28.5t132.5 61.5l46 -249q-40 -30 -138.5 -69t-213.5 -53 q17 -47 29.5 -113.5t12.5 -112.5q0 -107 -72 -170t-229 -63q-45 0 -134.5 12t-105.5 23l36 203q34 -16 79 -16q86 0 132 26t50 99q3 72 -1 114q-97 15 -172.5 58t-124 103t-80.5 138.5t-45 160t-13 172.5z" />
<glyph unicode="&#xc8;" horiz-adv-x="1204" d="M72 0l219 1530h914l-37 -275l-562 2l-48 -337l419 5l-36 -276l-421 9l-55 -388l633 10l-37 -280h-989zM399 1827l210 187l279 -342l-143 -122q-80 30 -194.5 118t-151.5 159z" />
<glyph unicode="&#xc9;" horiz-adv-x="1204" d="M72 0l219 1530h914l-37 -275l-562 2l-48 -337l419 5l-36 -276l-421 9l-55 -388l633 10l-37 -280h-989zM661 1672l279 342l210 -187q-37 -71 -151.5 -159t-194.5 -118z" />
<glyph unicode="&#xca;" horiz-adv-x="1204" d="M72 0l219 1530h914l-37 -275l-562 2l-48 -337l419 5l-36 -276l-421 9l-55 -388l633 10l-37 -280h-989zM395 1666l371 348h180l212 -337l-145 -78l-183 167l-287 -167z" />
<glyph unicode="&#xcb;" horiz-adv-x="1204" d="M72 0l219 1530h914l-37 -275l-562 2l-48 -337l419 5l-36 -276l-421 9l-55 -388l633 10l-37 -280h-989zM372 1799q2 84 51.5 140t132.5 56q69 0 113 -49t42 -112q-2 -89 -49 -145.5t-140 -56.5q-59 0 -105.5 52t-44.5 115zM846 1799q2 85 50.5 140.5t130.5 55.5 q69 0 114.5 -49t43.5 -112q-2 -89 -50.5 -145.5t-140.5 -56.5q-60 0 -105 52t-43 115z" />
<glyph unicode="&#xcc;" horiz-adv-x="706" d="M98 0l219 1530h354l-219 -1530h-354zM140 1827l210 187l279 -342l-143 -122q-80 30 -194.5 118t-151.5 159z" />
<glyph unicode="&#xcd;" horiz-adv-x="706" d="M98 0l219 1530h354l-219 -1530h-354zM402 1672l279 342l210 -187q-37 -71 -151.5 -159t-194.5 -118z" />
<glyph unicode="&#xce;" horiz-adv-x="706" d="M98 0l219 1530h354l-219 -1530h-354zM136 1666l371 348h180l212 -337l-145 -78l-183 167l-287 -167z" />
<glyph unicode="&#xcf;" horiz-adv-x="706" d="M98 0l219 1530h354l-219 -1530h-354zM113 1799q2 84 51.5 140t132.5 56q69 0 113 -49t42 -112q-2 -89 -49 -145.5t-140 -56.5q-59 0 -105.5 52t-44.5 115zM587 1799q2 85 50.5 140.5t130.5 55.5q69 0 114.5 -49t43.5 -112q-2 -89 -50.5 -145.5t-140.5 -56.5 q-60 0 -105 52t-43 115z" />
<glyph unicode="&#xd0;" horiz-adv-x="1438" d="M29 673l25 251h163l87 608h156q42 0 191 8t196 8q155 0 268.5 -44t181 -127t99.5 -192.5t32 -250.5q0 -151 -32.5 -289t-100.5 -258.5t-166.5 -209.5t-238.5 -140t-308 -51q-46 0 -144 7q-155 9 -209 9h-144l96 671h-152zM477 266q65 -21 155 -21q107 0 191 55t136 151 t78.5 220t26.5 268q0 104 -16.5 171.5t-54 106.5t-89.5 54.5t-130 15.5q-88 0 -153 -13l-50 -350h294l-26 -251h-304z" />
<glyph unicode="&#xd1;" horiz-adv-x="1512" d="M84 0l219 1530h307l356 -792l79 -260l13 260l97 792h342l-219 -1530h-297l-348 833l-99 275l3 -275l-115 -833h-338zM495 1783q35 71 130 134t176 63q48 0 87 -15t65 -36t49.5 -42t50.5 -36t57 -15t54.5 8.5t47 28.5t34.5 32.5t34 40.5l119 -145q-31 -75 -123 -142 t-177 -67q-54 0 -96 14.5t-68.5 35.5t-50 42t-53.5 36t-66 16q-78 1 -164 -89z" />
<glyph unicode="&#xd2;" horiz-adv-x="1394" d="M66 578q0 196 52.5 371.5t147.5 308t239 210.5t316 78q132 0 237 -47.5t171 -130.5t100.5 -190.5t34.5 -231.5q0 -156 -32.5 -300t-96.5 -264t-153 -209t-208 -139t-256 -50q-135 0 -241.5 47t-173.5 128.5t-102 188t-35 230.5zM430 596q0 -191 53 -268.5t163 -77.5 q80 0 148.5 62.5t112.5 162t68.5 220t24.5 240.5q0 191 -53 268t-164 77q-80 0 -148.5 -63.5t-112 -164.5t-68 -220.5t-24.5 -235.5zM507 1827l210 187l279 -342l-143 -122q-80 30 -194.5 118t-151.5 159z" />
<glyph unicode="&#xd3;" horiz-adv-x="1394" d="M66 578q0 196 52.5 371.5t147.5 308t239 210.5t316 78q132 0 237 -47.5t171 -130.5t100.5 -190.5t34.5 -231.5q0 -156 -32.5 -300t-96.5 -264t-153 -209t-208 -139t-256 -50q-135 0 -241.5 47t-173.5 128.5t-102 188t-35 230.5zM430 596q0 -191 53 -268.5t163 -77.5 q80 0 148.5 62.5t112.5 162t68.5 220t24.5 240.5q0 191 -53 268t-164 77q-80 0 -148.5 -63.5t-112 -164.5t-68 -220.5t-24.5 -235.5zM769 1672l279 342l210 -187q-37 -71 -151.5 -159t-194.5 -118z" />
<glyph unicode="&#xd4;" horiz-adv-x="1394" d="M66 578q0 196 52.5 371.5t147.5 308t239 210.5t316 78q132 0 237 -47.5t171 -130.5t100.5 -190.5t34.5 -231.5q0 -156 -32.5 -300t-96.5 -264t-153 -209t-208 -139t-256 -50q-135 0 -241.5 47t-173.5 128.5t-102 188t-35 230.5zM430 596q0 -191 53 -268.5t163 -77.5 q80 0 148.5 62.5t112.5 162t68.5 220t24.5 240.5q0 191 -53 268t-164 77q-80 0 -148.5 -63.5t-112 -164.5t-68 -220.5t-24.5 -235.5zM503 1666l371 348h180l212 -337l-145 -78l-183 167l-287 -167z" />
<glyph unicode="&#xd5;" horiz-adv-x="1394" d="M66 578q0 196 52.5 371.5t147.5 308t239 210.5t316 78q132 0 237 -47.5t171 -130.5t100.5 -190.5t34.5 -231.5q0 -156 -32.5 -300t-96.5 -264t-153 -209t-208 -139t-256 -50q-135 0 -241.5 47t-173.5 128.5t-102 188t-35 230.5zM430 596q0 -191 53 -268.5t163 -77.5 q80 0 148.5 62.5t112.5 162t68.5 220t24.5 240.5q0 191 -53 268t-164 77q-80 0 -148.5 -63.5t-112 -164.5t-68 -220.5t-24.5 -235.5zM486 1783q35 71 130 134t176 63q48 0 87 -15t65 -36t49.5 -42t50.5 -36t57 -15t54.5 8.5t47 28.5t34.5 32.5t34 40.5l119 -145 q-31 -75 -123 -142t-177 -67q-54 0 -96 14.5t-68.5 35.5t-50 42t-53.5 36t-66 16q-78 1 -164 -89z" />
<glyph unicode="&#xd6;" horiz-adv-x="1394" d="M66 578q0 196 52.5 371.5t147.5 308t239 210.5t316 78q132 0 237 -47.5t171 -130.5t100.5 -190.5t34.5 -231.5q0 -156 -32.5 -300t-96.5 -264t-153 -209t-208 -139t-256 -50q-135 0 -241.5 47t-173.5 128.5t-102 188t-35 230.5zM430 596q0 -191 53 -268.5t163 -77.5 q80 0 148.5 62.5t112.5 162t68.5 220t24.5 240.5q0 191 -53 268t-164 77q-80 0 -148.5 -63.5t-112 -164.5t-68 -220.5t-24.5 -235.5zM480 1799q2 84 51.5 140t132.5 56q69 0 113 -49t42 -112q-2 -89 -49 -145.5t-140 -56.5q-59 0 -105.5 52t-44.5 115zM954 1799 q2 85 50.5 140.5t130.5 55.5q69 0 114.5 -49t43.5 -112q-2 -89 -50.5 -145.5t-140.5 -56.5q-60 0 -105 52t-43 115z" />
<glyph unicode="&#xd7;" horiz-adv-x="1397" d="M166 454l385 336l-313 337l209 185l291 -361l379 361l173 -207l-393 -336l321 -337l-209 -185l-299 361l-371 -360z" />
<glyph unicode="&#xd8;" horiz-adv-x="1393" d="M66 580q0 196 52.5 371.5t147.5 308t239 210.5t316 78q159 0 280 -70l110 192l89 -49l-117 -204q89 -82 135 -204t46 -265q0 -156 -32.5 -300t-96.5 -264t-153 -209t-208 -139t-256 -50q-155 0 -275 63l-113 -181l-89 49l119 188q-96 80 -145 203.5t-49 271.5zM430 598 q0 -126 23 -204l474 836q-49 52 -144 52q-80 0 -148.5 -63.5t-112 -164.5t-68 -220.5t-24.5 -235.5zM510 296q48 -44 136 -44q80 0 148.5 62.5t112.5 162t68.5 220t24.5 240.5q0 115 -19 185z" />
<glyph unicode="&#xd9;" horiz-adv-x="1440" d="M115 432q-1 71 13 165l133 933h353l-126 -888q-11 -80 -11 -192q1 -111 45 -153t153 -42q84 0 137.5 33t89.5 116t58 230l127 896h352l-130 -933q-46 -330 -206.5 -471.5t-481.5 -141.5q-255 0 -380 117.5t-126 330.5zM487 1827l210 187l279 -342l-143 -122 q-80 30 -194.5 118t-151.5 159z" />
<glyph unicode="&#xda;" horiz-adv-x="1440" d="M115 432q-1 71 13 165l133 933h353l-126 -888q-11 -80 -11 -192q1 -111 45 -153t153 -42q84 0 137.5 33t89.5 116t58 230l127 896h352l-130 -933q-46 -330 -206.5 -471.5t-481.5 -141.5q-255 0 -380 117.5t-126 330.5zM749 1672l279 342l210 -187q-37 -71 -151.5 -159 t-194.5 -118z" />
<glyph unicode="&#xdb;" horiz-adv-x="1440" d="M115 432q-1 71 13 165l133 933h353l-126 -888q-11 -80 -11 -192q1 -111 45 -153t153 -42q84 0 137.5 33t89.5 116t58 230l127 896h352l-130 -933q-46 -330 -206.5 -471.5t-481.5 -141.5q-255 0 -380 117.5t-126 330.5zM483 1666l371 348h180l212 -337l-145 -78l-183 167 l-287 -167z" />
<glyph unicode="&#xdc;" horiz-adv-x="1440" d="M115 432q-1 71 13 165l133 933h353l-126 -888q-11 -80 -11 -192q1 -111 45 -153t153 -42q84 0 137.5 33t89.5 116t58 230l127 896h352l-130 -933q-46 -330 -206.5 -471.5t-481.5 -141.5q-255 0 -380 117.5t-126 330.5zM460 1799q2 84 51.5 140t132.5 56q69 0 113 -49 t42 -112q-2 -89 -49 -145.5t-140 -56.5q-59 0 -105.5 52t-44.5 115zM934 1799q2 85 50.5 140.5t130.5 55.5q69 0 114.5 -49t43.5 -112q-2 -89 -50.5 -145.5t-140.5 -56.5q-60 0 -105 52t-43 115z" />
<glyph unicode="&#xdd;" horiz-adv-x="1176" d="M95 1530h372l141 -525l25 -134l58 134l284 525h393l-600 -940l-85 -590h-354l85 590zM605 1672l279 342l210 -187q-37 -71 -151.5 -159t-194.5 -118z" />
<glyph unicode="&#xde;" horiz-adv-x="1306" d="M76 0l215 1530h360l-35 -247q70 5 133 5q260 0 398.5 -108t139.5 -317q0 -125 -43.5 -234t-124.5 -192t-207 -131t-281 -48q-29 0 -61 2.5t-61.5 6t-33.5 3.5l-38 -270h-361zM512 534q41 -11 125 -11q141 0 217.5 80.5t85.5 228.5q6 103 -52.5 156.5t-202.5 53.5 q-71 0 -100 -5l-3 3z" />
<glyph unicode="&#xdf;" horiz-adv-x="1329" d="M65 0l124 927q19 125 53 225t75 168t96 117.5t107.5 77.5t118 44.5t118 21t116.5 4.5q186 0 298.5 -79.5t112.5 -222.5q0 -84 -24.5 -148.5t-59 -102t-69.5 -67.5t-59.5 -63.5t-24.5 -72.5q0 -67 86 -181q38 -52 61 -89t43.5 -99.5t20.5 -127.5q0 -168 -117.5 -258 t-323.5 -90q-187 0 -272 47l24 264q24 -27 81 -48.5t104 -20.5q155 2 155 119q0 27 -11.5 54.5t-23.5 44t-35.5 44t-32.5 39.5q-114 160 -114 253q0 34 10 65t32.5 62.5t39 50t48.5 51.5q67 58 100.5 113.5t33.5 124.5q0 50 -36.5 83.5t-97.5 33.5q-105 0 -183 -119.5 t-109 -377.5l-118 -867h-347z" />
<glyph unicode="&#xe0;" horiz-adv-x="1268" d="M70 412q0 112 27.5 219t85.5 202.5t140 167t198 113.5t252 42q117 0 248 -45l184 45l-161 -1156h-320l11 248q-23 -50 -52.5 -93.5t-70 -83.5t-94 -63.5t-112.5 -23.5q-91 0 -158 34t-105 94.5t-55.5 135t-17.5 164.5zM355 1574l209 200l334 -449l-124 -99 q-57 22 -152 94t-172 146t-95 108zM442 433q0 -209 89 -209q47 0 99 68t87.5 150.5t58.5 163.5l47 335q-29 5 -75 5q-74 0 -134 -46t-96.5 -120.5t-56 -164t-19.5 -182.5z" />
<glyph unicode="&#xe1;" horiz-adv-x="1268" d="M70 412q0 112 27.5 219t85.5 202.5t140 167t198 113.5t252 42q117 0 248 -45l184 45l-161 -1156h-320l11 248q-23 -50 -52.5 -93.5t-70 -83.5t-94 -63.5t-112.5 -23.5q-91 0 -158 34t-105 94.5t-55.5 135t-17.5 164.5zM442 433q0 -209 89 -209q47 0 99 68t87.5 150.5 t58.5 163.5l47 335q-29 5 -75 5q-74 0 -134 -46t-96.5 -120.5t-56 -164t-19.5 -182.5zM666 1325l334 449l209 -200q-18 -34 -95 -108t-172 -146t-152 -94z" />
<glyph unicode="&#xe2;" horiz-adv-x="1268" d="M70 412q0 112 27.5 219t85.5 202.5t140 167t198 113.5t252 42q117 0 248 -45l184 45l-161 -1156h-320l11 248q-23 -50 -52.5 -93.5t-70 -83.5t-94 -63.5t-112.5 -23.5q-91 0 -158 34t-105 94.5t-55.5 135t-17.5 164.5zM424 1296l371 374h180l212 -374l-155 -68l-180 174 l-290 -173zM442 433q0 -209 89 -209q47 0 99 68t87.5 150.5t58.5 163.5l47 335q-29 5 -75 5q-74 0 -134 -46t-96.5 -120.5t-56 -164t-19.5 -182.5z" />
<glyph unicode="&#xe3;" horiz-adv-x="1268" d="M70 412q0 112 27.5 219t85.5 202.5t140 167t198 113.5t252 42q117 0 248 -45l184 45l-161 -1156h-320l11 248q-23 -50 -52.5 -93.5t-70 -83.5t-94 -63.5t-112.5 -23.5q-91 0 -158 34t-105 94.5t-55.5 135t-17.5 164.5zM366 1501q35 71 130 134t176 63q48 0 87 -16 t65 -38.5t49.5 -45t50.5 -38.5t57 -16t54.5 8.5t47 28.5t34.5 32.5t34 40.5l119 -145q-31 -75 -123 -142t-177 -67q-54 0 -96 15.5t-68.5 38t-50 45t-53.5 38.5t-66 17q-78 1 -164 -89zM442 433q0 -209 89 -209q47 0 99 68t87.5 150.5t58.5 163.5l47 335q-29 5 -75 5 q-74 0 -134 -46t-96.5 -120.5t-56 -164t-19.5 -182.5z" />
<glyph unicode="&#xe4;" horiz-adv-x="1268" d="M70 412q0 112 27.5 219t85.5 202.5t140 167t198 113.5t252 42q117 0 248 -45l184 45l-161 -1156h-320l11 248q-23 -50 -52.5 -93.5t-70 -83.5t-94 -63.5t-112.5 -23.5q-91 0 -158 34t-105 94.5t-55.5 135t-17.5 164.5zM416 1505q2 84 51.5 140t132.5 56q69 0 113 -49 t42 -112q-2 -89 -49 -145.5t-140 -56.5q-59 0 -105.5 52t-44.5 115zM442 433q0 -209 89 -209q47 0 99 68t87.5 150.5t58.5 163.5l47 335q-29 5 -75 5q-74 0 -134 -46t-96.5 -120.5t-56 -164t-19.5 -182.5zM890 1505q2 85 50.5 140.5t130.5 55.5q69 0 114.5 -49t43.5 -112 q-2 -89 -50.5 -145.5t-140.5 -56.5q-60 0 -105 52t-43 115z" />
<glyph unicode="&#xe5;" horiz-adv-x="1268" d="M70 412q0 112 27.5 219t85.5 202.5t140 167t198 113.5t252 42q117 0 248 -45l184 45l-161 -1156h-320l11 248q-23 -50 -52.5 -93.5t-70 -83.5t-94 -63.5t-112.5 -23.5q-91 0 -158 34t-105 94.5t-55.5 135t-17.5 164.5zM442 433q0 -209 89 -209q47 0 99 68t87.5 150.5 t58.5 163.5l47 335q-29 5 -75 5q-74 0 -134 -46t-96.5 -120.5t-56 -164t-19.5 -182.5zM500 1497q0 67 26 121.5t66.5 88.5t93.5 56.5t103.5 31.5t100.5 9q139 0 222.5 -60t83.5 -177q0 -77 -34 -138.5t-89.5 -99t-122 -57t-137.5 -19.5q-145 0 -229 63.5t-84 180.5z M696 1520q0 -52 43 -88t96 -36q70 0 118 32.5t48 110.5q0 53 -41 89t-95 36q-68 0 -118.5 -35t-50.5 -109z" />
<glyph unicode="&#xe6;" horiz-adv-x="1770" d="M68 412q0 112 29.5 219t91.5 202.5t149.5 167t212 113.5t270.5 42q154 0 263 -66q134 66 290 66q172 0 256 -69t84 -194q0 -87 -32 -159.5t-85 -125t-133.5 -96t-164.5 -73t-192 -56.5q0 -79 31 -118t114 -39q88 0 184.5 53.5t138.5 109.5l92 -171q-24 -35 -68 -73 t-107 -75.5t-149.5 -61.5t-178.5 -24q-173 0 -276.5 85t-139.5 225q-25 -59 -58.5 -111t-77.5 -98.5t-100.5 -73.5t-117.5 -27q-73 0 -130 23t-93.5 61.5t-60 94t-33 116.5t-9.5 133zM440 433q0 -103 17 -145t62 -42q54 0 125 105t97 231q31 209 149 352q-51 12 -94 12 q-87 0 -157 -46t-112 -121t-64.5 -164t-22.5 -182zM1102 561q95 6 181.5 94.5t86.5 203.5q0 53 -17.5 77t-57.5 24q-45 0 -83 -42t-60.5 -105.5t-35.5 -129.5t-14 -122z" />
<glyph unicode="&#xe7;" horiz-adv-x="956" d="M74 442q0 155 47 288.5t129 226.5t197 146t248 53q58 0 137 -12.5t121 -30.5l-86 -342q-15 15 -42.5 36.5t-74.5 46t-82 24.5q-98 0 -164 -97.5t-66 -282.5q0 -136 32 -196.5t114 -60.5q58 0 128.5 37t106.5 78l89 -171q-39 -59 -109.5 -110.5t-170.5 -74.5 q18 -44 32.5 -116t14.5 -122q0 -107 -72 -170t-229 -63q-45 0 -134.5 12t-105.5 23l36 203q34 -16 79 -16q86 0 132 26t50 99q3 68 -1 111q-77 8 -138.5 38.5t-101.5 75t-66.5 102t-38 117t-11.5 122.5z" />
<glyph unicode="&#xe8;" horiz-adv-x="1112" d="M73 442q0 153 50 286.5t136.5 227t205 147t251.5 53.5q172 0 256 -69t84 -194q0 -87 -32 -159.5t-85 -125t-133.5 -96t-164.5 -73t-192 -56.5q0 -79 31 -118t114 -39q88 0 184.5 53.5t138.5 109.5l92 -171q-24 -35 -68 -73t-107 -75.5t-149.5 -61.5t-178.5 -24 q-90 0 -163.5 25t-123 68t-83 101.5t-48.5 124.5t-15 139zM275 1574l209 200l334 -449l-124 -99q-57 22 -152 94t-172 146t-95 108zM444 561q95 6 181.5 94.5t86.5 203.5q0 53 -17.5 77t-57.5 24q-45 0 -83 -42t-60.5 -105.5t-35.5 -129.5t-14 -122z" />
<glyph unicode="&#xe9;" horiz-adv-x="1112" d="M73 442q0 153 50 286.5t136.5 227t205 147t251.5 53.5q172 0 256 -69t84 -194q0 -87 -32 -159.5t-85 -125t-133.5 -96t-164.5 -73t-192 -56.5q0 -79 31 -118t114 -39q88 0 184.5 53.5t138.5 109.5l92 -171q-24 -35 -68 -73t-107 -75.5t-149.5 -61.5t-178.5 -24 q-90 0 -163.5 25t-123 68t-83 101.5t-48.5 124.5t-15 139zM444 561q95 6 181.5 94.5t86.5 203.5q0 53 -17.5 77t-57.5 24q-45 0 -83 -42t-60.5 -105.5t-35.5 -129.5t-14 -122zM586 1325l334 449l209 -200q-18 -34 -95 -108t-172 -146t-152 -94z" />
<glyph unicode="&#xea;" horiz-adv-x="1112" d="M73 442q0 153 50 286.5t136.5 227t205 147t251.5 53.5q172 0 256 -69t84 -194q0 -87 -32 -159.5t-85 -125t-133.5 -96t-164.5 -73t-192 -56.5q0 -79 31 -118t114 -39q88 0 184.5 53.5t138.5 109.5l92 -171q-24 -35 -68 -73t-107 -75.5t-149.5 -61.5t-178.5 -24 q-90 0 -163.5 25t-123 68t-83 101.5t-48.5 124.5t-15 139zM344 1296l371 374h180l212 -374l-155 -68l-180 174l-290 -173zM444 561q95 6 181.5 94.5t86.5 203.5q0 53 -17.5 77t-57.5 24q-45 0 -83 -42t-60.5 -105.5t-35.5 -129.5t-14 -122z" />
<glyph unicode="&#xeb;" horiz-adv-x="1112" d="M73 442q0 153 50 286.5t136.5 227t205 147t251.5 53.5q172 0 256 -69t84 -194q0 -87 -32 -159.5t-85 -125t-133.5 -96t-164.5 -73t-192 -56.5q0 -79 31 -118t114 -39q88 0 184.5 53.5t138.5 109.5l92 -171q-24 -35 -68 -73t-107 -75.5t-149.5 -61.5t-178.5 -24 q-90 0 -163.5 25t-123 68t-83 101.5t-48.5 124.5t-15 139zM336 1505q2 84 51.5 140t132.5 56q69 0 113 -49t42 -112q-2 -89 -49 -145.5t-140 -56.5q-59 0 -105.5 52t-44.5 115zM444 561q95 6 181.5 94.5t86.5 203.5q0 53 -17.5 77t-57.5 24q-45 0 -83 -42t-60.5 -105.5 t-35.5 -129.5t-14 -122zM810 1505q2 85 50.5 140.5t130.5 55.5q69 0 114.5 -49t43.5 -112q-2 -89 -50.5 -145.5t-140.5 -56.5q-60 0 -105 52t-43 115z" />
<glyph unicode="&#xec;" horiz-adv-x="664" d="M4 1574l209 200l334 -449l-124 -99q-57 22 -152 94t-172 146t-95 108zM80 0l156 1140h359l-158 -1140h-357z" />
<glyph unicode="&#xed;" horiz-adv-x="664" d="M80 0l156 1140h359l-158 -1140h-357zM315 1325l334 449l209 -200q-18 -34 -95 -108t-172 -146t-152 -94z" />
<glyph unicode="&#xee;" horiz-adv-x="664" d="M73 1296l371 374h180l212 -374l-155 -68l-180 174l-290 -173zM80 0l156 1140h359l-158 -1140h-357z" />
<glyph unicode="&#xef;" horiz-adv-x="664" d="M65 1505q2 84 51.5 140t132.5 56q69 0 113 -49t42 -112q-2 -89 -49 -145.5t-140 -56.5q-59 0 -105.5 52t-44.5 115zM80 0l156 1140h359l-158 -1140h-357zM539 1505q2 85 50.5 140.5t130.5 55.5q69 0 114.5 -49t43.5 -112q-2 -89 -50.5 -145.5t-140.5 -56.5q-60 0 -105 52 t-43 115z" />
<glyph unicode="&#xf0;" horiz-adv-x="1212" d="M66 423q0 341 150.5 538t404.5 197q129 0 181 -47q-6 145 -98 277l-102 -113l-126 114l119 121q-99 88 -227 125l60 179q159 -40 309 -146l134 153l118 -115l-126 -140q146 -144 214.5 -346.5t68.5 -417.5q0 -139 -25 -262t-76.5 -225t-125.5 -175.5t-177 -114.5 t-226 -41q-111 0 -199 38t-141.5 101.5t-81.5 140t-28 159.5zM440 411q0 -100 28 -164.5t78 -64.5q72 0 129.5 105.5t78.5 263.5q7 45 17 161.5t10 156.5q2 38 -39 72t-102 34q-49 0 -88.5 -52.5t-63 -137t-36 -181t-12.5 -193.5z" />
<glyph unicode="&#xf1;" horiz-adv-x="1319" d="M76 0l156 1140h341l-13 -206q68 104 162.5 163t206.5 59q136 0 206.5 -70.5t70.5 -231.5q0 -50 -40 -343q-12 -90 -38 -269.5t-34 -241.5h-357q46 308 70 510q25 204 28 278q3 53 -17.5 76t-63.5 23q-55 0 -118 -52t-107 -137l-96 -698h-357zM419 1501q35 71 130 134 t176 63q48 0 87 -16t65 -38.5t49.5 -45t50.5 -38.5t57 -16t54.5 8.5t47 28.5t34.5 32.5t34 40.5l119 -145q-31 -75 -123 -142t-177 -67q-54 0 -96 15.5t-68.5 38t-50 45t-53.5 38.5t-66 17q-78 1 -164 -89z" />
<glyph unicode="&#xf2;" horiz-adv-x="1181" d="M65 469q0 138 41 260.5t118 218.5t200.5 152t276.5 56q87 0 157.5 -25.5t118 -70t79 -106.5t46 -132.5t14.5 -150.5q0 -138 -40.5 -260.5t-118 -218.5t-200.5 -152t-276 -56q-108 0 -190 38.5t-130.5 106.5t-72 153.5t-23.5 186.5zM283 1574l209 200l334 -449l-124 -99 q-57 22 -152 94t-172 146t-95 108zM419 429q0 -231 110 -231q60 0 105.5 45.5t71.5 120.5t39 161.5t13 179.5q0 126 -27.5 181.5t-82.5 55.5q-58 0 -103.5 -48t-72 -125t-40 -164t-13.5 -176z" />
<glyph unicode="&#xf3;" horiz-adv-x="1181" d="M65 469q0 138 41 260.5t118 218.5t200.5 152t276.5 56q87 0 157.5 -25.5t118 -70t79 -106.5t46 -132.5t14.5 -150.5q0 -138 -40.5 -260.5t-118 -218.5t-200.5 -152t-276 -56q-108 0 -190 38.5t-130.5 106.5t-72 153.5t-23.5 186.5zM419 429q0 -231 110 -231 q60 0 105.5 45.5t71.5 120.5t39 161.5t13 179.5q0 126 -27.5 181.5t-82.5 55.5q-58 0 -103.5 -48t-72 -125t-40 -164t-13.5 -176zM594 1325l334 449l209 -200q-18 -34 -95 -108t-172 -146t-152 -94z" />
<glyph unicode="&#xf4;" horiz-adv-x="1181" d="M65 469q0 138 41 260.5t118 218.5t200.5 152t276.5 56q87 0 157.5 -25.5t118 -70t79 -106.5t46 -132.5t14.5 -150.5q0 -138 -40.5 -260.5t-118 -218.5t-200.5 -152t-276 -56q-108 0 -190 38.5t-130.5 106.5t-72 153.5t-23.5 186.5zM352 1296l371 374h180l212 -374 l-155 -68l-180 174l-290 -173zM419 429q0 -231 110 -231q60 0 105.5 45.5t71.5 120.5t39 161.5t13 179.5q0 126 -27.5 181.5t-82.5 55.5q-58 0 -103.5 -48t-72 -125t-40 -164t-13.5 -176z" />
<glyph unicode="&#xf5;" horiz-adv-x="1181" d="M65 469q0 138 41 260.5t118 218.5t200.5 152t276.5 56q87 0 157.5 -25.5t118 -70t79 -106.5t46 -132.5t14.5 -150.5q0 -138 -40.5 -260.5t-118 -218.5t-200.5 -152t-276 -56q-108 0 -190 38.5t-130.5 106.5t-72 153.5t-23.5 186.5zM294 1501q35 71 130 134t176 63 q48 0 87 -16t65 -38.5t49.5 -45t50.5 -38.5t57 -16t54.5 8.5t47 28.5t34.5 32.5t34 40.5l119 -145q-31 -75 -123 -142t-177 -67q-54 0 -96 15.5t-68.5 38t-50 45t-53.5 38.5t-66 17q-78 1 -164 -89zM419 429q0 -231 110 -231q60 0 105.5 45.5t71.5 120.5t39 161.5t13 179.5 q0 126 -27.5 181.5t-82.5 55.5q-58 0 -103.5 -48t-72 -125t-40 -164t-13.5 -176z" />
<glyph unicode="&#xf6;" horiz-adv-x="1181" d="M65 469q0 138 41 260.5t118 218.5t200.5 152t276.5 56q87 0 157.5 -25.5t118 -70t79 -106.5t46 -132.5t14.5 -150.5q0 -138 -40.5 -260.5t-118 -218.5t-200.5 -152t-276 -56q-108 0 -190 38.5t-130.5 106.5t-72 153.5t-23.5 186.5zM344 1505q2 84 51.5 140t132.5 56 q69 0 113 -49t42 -112q-2 -89 -49 -145.5t-140 -56.5q-59 0 -105.5 52t-44.5 115zM419 429q0 -231 110 -231q60 0 105.5 45.5t71.5 120.5t39 161.5t13 179.5q0 126 -27.5 181.5t-82.5 55.5q-58 0 -103.5 -48t-72 -125t-40 -164t-13.5 -176zM818 1505q2 85 50.5 140.5 t130.5 55.5q69 0 114.5 -49t43.5 -112q-2 -89 -50.5 -145.5t-140.5 -56.5q-60 0 -105 52t-43 115z" />
<glyph unicode="&#xf7;" horiz-adv-x="1397" d="M224 653l36 265l960 -2l-34 -263h-962zM492 295q0 88 57.5 151.5t150.5 63.5q83 0 122 -41.5t39 -107.5q0 -98 -58 -158t-155 -60q-72 0 -114 42t-42 110zM604 1207q0 88 57.5 151.5t150.5 63.5q83 0 122 -41.5t39 -107.5q0 -98 -58 -158t-155 -60q-72 0 -114 42t-42 110 z" />
<glyph unicode="&#xf8;" horiz-adv-x="1180" d="M65 471q0 138 41 260.5t118 218.5t200.5 152t276.5 56q87 0 160 -27l98 172l89 -49l-98 -171q84 -63 125 -170t41 -240q0 -138 -40.5 -260.5t-118 -218.5t-200.5 -152t-276 -56q-91 0 -164 28l-91 -146l-89 49l92 145q-83 64 -123.5 170.5t-40.5 238.5zM419 431 q0 -41 3 -74l287 562q-24 25 -61 25q-58 0 -103.5 -48t-72 -125t-40 -164t-13.5 -176zM464 229q25 -29 65 -29q60 0 105.5 45.5t71.5 120.5t39 161.5t13 179.5q0 49 -4 81z" />
<glyph unicode="&#xf9;" horiz-adv-x="1292" d="M121 235q-1 103 36 359l75 546h353l-70 -551q-27 -201 -27 -257q0 -47 20 -72.5t49 -25.5q51 0 107 52.5t101 130.5l101 723h357l-156 -1140h-318l6 194q-57 -91 -150 -152.5t-203 -61.5q-58 0 -105.5 13t-88 41.5t-63.5 79.5t-24 121zM324 1574l209 200l334 -449 l-124 -99q-57 22 -152 94t-172 146t-95 108z" />
<glyph unicode="&#xfa;" horiz-adv-x="1292" d="M121 235q-1 103 36 359l75 546h353l-70 -551q-27 -201 -27 -257q0 -47 20 -72.5t49 -25.5q51 0 107 52.5t101 130.5l101 723h357l-156 -1140h-318l6 194q-57 -91 -150 -152.5t-203 -61.5q-58 0 -105.5 13t-88 41.5t-63.5 79.5t-24 121zM635 1325l334 449l209 -200 q-18 -34 -95 -108t-172 -146t-152 -94z" />
<glyph unicode="&#xfb;" horiz-adv-x="1292" d="M121 235q-1 103 36 359l75 546h353l-70 -551q-27 -201 -27 -257q0 -47 20 -72.5t49 -25.5q51 0 107 52.5t101 130.5l101 723h357l-156 -1140h-318l6 194q-57 -91 -150 -152.5t-203 -61.5q-58 0 -105.5 13t-88 41.5t-63.5 79.5t-24 121zM393 1296l371 374h180l212 -374 l-155 -68l-180 174l-290 -173z" />
<glyph unicode="&#xfc;" horiz-adv-x="1292" d="M121 235q-1 103 36 359l75 546h353l-70 -551q-27 -201 -27 -257q0 -47 20 -72.5t49 -25.5q51 0 107 52.5t101 130.5l101 723h357l-156 -1140h-318l6 194q-57 -91 -150 -152.5t-203 -61.5q-58 0 -105.5 13t-88 41.5t-63.5 79.5t-24 121zM385 1505q2 84 51.5 140t132.5 56 q69 0 113 -49t42 -112q-2 -89 -49 -145.5t-140 -56.5q-59 0 -105.5 52t-44.5 115zM859 1505q2 85 50.5 140.5t130.5 55.5q69 0 114.5 -49t43.5 -112q-2 -89 -50.5 -145.5t-140.5 -56.5q-60 0 -105 52t-43 115z" />
<glyph unicode="&#xfd;" horiz-adv-x="1140" d="M-92 -442l89 244q36 -25 85.5 -43t88.5 -18q85 0 148 51.5t152 187.5h-206l-56 375l-114 785h352l74 -685l33 -318q65 134 118 301q48 139 67 239t32 301q3 43 3 162h320q6 -30 6 -153q0 -303 -149 -655q-112 -265 -269 -480q-15 -20 -42.5 -58.5t-41.5 -57.5 t-39.5 -51.5t-41.5 -49.5t-42.5 -42t-48.5 -38t-52.5 -29.5t-60.5 -24t-67 -13t-78 -5.5q-134 0 -260 75zM471 1325l334 449l209 -200q-18 -34 -95 -108t-172 -146t-152 -94z" />
<glyph unicode="&#xfe;" horiz-adv-x="1290" d="M8 -492l68 492l225 1634h343l-85 -658l-21 -121q20 53 49.5 102t71.5 96t100.5 75t124.5 28q91 0 158 -34.5t105 -96t55.5 -136.5t17.5 -165q0 -141 -45 -271.5t-130 -236t-222 -169t-306 -63.5q-47 0 -105 10l-10 -136l-40 -350h-354zM460 199q31 -5 81 -5 q98 0 169.5 78.5t103.5 191.5t32 239q0 209 -88 209q-39 0 -81.5 -45t-76 -112t-58.5 -134t-38 -122l1 56z" />
<glyph unicode="&#xff;" horiz-adv-x="1140" d="M-92 -442l89 244q36 -25 85.5 -43t88.5 -18q85 0 148 51.5t152 187.5h-206l-56 375l-114 785h352l74 -685l33 -318q65 134 118 301q48 139 67 239t32 301q3 43 3 162h320q6 -30 6 -153q0 -303 -149 -655q-112 -265 -269 -480q-15 -20 -42.5 -58.5t-41.5 -57.5 t-39.5 -51.5t-41.5 -49.5t-42.5 -42t-48.5 -38t-52.5 -29.5t-60.5 -24t-67 -13t-78 -5.5q-134 0 -260 75zM221 1505q2 84 51.5 140t132.5 56q69 0 113 -49t42 -112q-2 -89 -49 -145.5t-140 -56.5q-59 0 -105.5 52t-44.5 115zM695 1505q2 85 50.5 140.5t130.5 55.5 q69 0 114.5 -49t43.5 -112q-2 -89 -50.5 -145.5t-140.5 -56.5q-60 0 -105 52t-43 115z" />
<glyph unicode="&#x152;" horiz-adv-x="2211" d="M66 578q0 196 52.5 371.5t147.5 308t239 210.5t316 78q152 0 264.5 -61.5t181.5 -170.5l31 216h914l-37 -275l-562 2l-48 -337l419 5l-36 -276l-421 9l-55 -388l633 10l-37 -280h-989l28 199q-199 -215 -489 -215q-135 0 -241.5 47t-173.5 128.5t-102 188t-35 230.5z M430 596q0 -191 53 -268.5t163 -77.5q80 0 148.5 62.5t112.5 162t68.5 220t24.5 240.5q0 191 -53 268t-164 77q-80 0 -148.5 -63.5t-112 -164.5t-68 -220.5t-24.5 -235.5z" />
<glyph unicode="&#x153;" horiz-adv-x="1775" d="M65 460q0 138 41 262t118 221.5t200.5 155t276.5 57.5q195 0 299 -130q166 130 379 130q172 0 256 -69t84 -194q0 -87 -32 -159.5t-85 -125t-133.5 -96t-164.5 -73t-192 -56.5q0 -79 31 -118t114 -39q88 0 184.5 53.5t138.5 109.5l92 -171q-24 -35 -68 -73t-107 -75.5 t-149.5 -61.5t-178.5 -24q-203 0 -317 122q-154 -122 -371 -122q-108 0 -190 37t-130.5 103.5t-72 150.5t-23.5 185zM419 420q0 -118 28 -170t82 -52t96.5 42t66.5 102.5t40 136t21 133.5t5 105q0 124 -27.5 174.5t-82.5 50.5q-58 0 -103.5 -49t-72 -128t-40 -167.5 t-13.5 -177.5zM1107 561q95 6 181.5 94.5t86.5 203.5q0 53 -17.5 77t-57.5 24q-45 0 -83 -42t-60.5 -105.5t-35.5 -129.5t-14 -122z" />
<glyph unicode="&#x178;" horiz-adv-x="1176" d="M95 1530h372l141 -525l25 -134l58 134l284 525h393l-600 -940l-85 -590h-354l85 590zM316 1799q2 84 51.5 140t132.5 56q69 0 113 -49t42 -112q-2 -89 -49 -145.5t-140 -56.5q-59 0 -105.5 52t-44.5 115zM790 1799q2 85 50.5 140.5t130.5 55.5q69 0 114.5 -49t43.5 -112 q-2 -89 -50.5 -145.5t-140.5 -56.5q-60 0 -105 52t-43 115z" />
<glyph unicode="&#x2c6;" horiz-adv-x="803" d="M35 1296l371 374h180l212 -374l-155 -68l-180 174l-290 -173z" />
<glyph unicode="&#x2dc;" horiz-adv-x="824" d="M-44 1501q35 71 130 134t176 63q48 0 87 -16t65 -38.5t49.5 -45t50.5 -38.5t57 -16t54.5 8.5t47 28.5t34.5 32.5t34 40.5l119 -145q-31 -75 -123 -142t-177 -67q-54 0 -96 15.5t-68.5 38t-50 45t-53.5 38.5t-66 17q-78 1 -164 -89z" />
<glyph unicode="&#x2000;" horiz-adv-x="1007" />
<glyph unicode="&#x2001;" horiz-adv-x="2014" />
<glyph unicode="&#x2002;" horiz-adv-x="1007" />
<glyph unicode="&#x2003;" horiz-adv-x="2014" />
<glyph unicode="&#x2004;" horiz-adv-x="671" />
<glyph unicode="&#x2005;" horiz-adv-x="503" />
<glyph unicode="&#x2006;" horiz-adv-x="335" />
<glyph unicode="&#x2007;" horiz-adv-x="335" />
<glyph unicode="&#x2008;" horiz-adv-x="251" />
<glyph unicode="&#x2009;" horiz-adv-x="402" />
<glyph unicode="&#x200a;" horiz-adv-x="111" />
<glyph unicode="&#x2010;" horiz-adv-x="1266" d="M223 648l37 248h840l-37 -248h-840z" />
<glyph unicode="&#x2011;" horiz-adv-x="1266" d="M223 648l37 248h840l-37 -248h-840z" />
<glyph unicode="&#x2012;" horiz-adv-x="1266" d="M223 648l37 248h840l-37 -248h-840z" />
<glyph unicode="&#x2013;" horiz-adv-x="1538" d="M223 648l37 248h1099l-37 -248h-1099z" />
<glyph unicode="&#x2014;" horiz-adv-x="2031" d="M223 648l37 248h1572l-37 -248h-1572z" />
<glyph unicode="&#x2018;" horiz-adv-x="709" d="M206 1240q0 101 34.5 193t89.5 157.5t113.5 111t116.5 69.5l115 -141l-2 -22q-58 -30 -104 -113t-46 -194q0 -59 19 -126t43 -91l-5 -41l-192 -156q-72 40 -127 131.5t-55 221.5z" />
<glyph unicode="&#x2019;" horiz-adv-x="709" d="M170 1027l2 22q58 30 104 113t46 194q0 59 -19 126t-43 91l5 41l192 156q72 -40 127 -131.5t55 -221.5q0 -101 -34.5 -193t-89.5 -157.5t-113.5 -111t-116.5 -69.5z" />
<glyph unicode="&#x201a;" horiz-adv-x="709" d="M14 -412l2 22q58 30 104 113t46 194q0 59 -19 126t-43 91l5 41l192 156q72 -40 127 -131.5t55 -221.5q0 -101 -34.5 -193t-89.5 -157.5t-113.5 -111t-116.5 -69.5z" />
<glyph unicode="&#x201c;" horiz-adv-x="1248" d="M206 1240q0 101 34.5 193t89.5 157.5t113.5 111t116.5 69.5l115 -141l-2 -22q-58 -30 -104 -113t-46 -194q0 -59 19 -126t43 -91l-5 -41l-192 -156q-72 40 -127 131.5t-55 221.5zM745 1240q0 101 34.5 193t89.5 157.5t113.5 111t116.5 69.5l115 -141l-2 -22 q-58 -30 -104 -113t-46 -194q0 -59 19 -126t43 -91l-5 -41l-192 -156q-72 40 -127 131.5t-55 221.5z" />
<glyph unicode="&#x201d;" horiz-adv-x="1247" d="M200 1027l2 22q58 30 104 113t46 194q0 59 -19 126t-43 91l5 41l192 156q72 -40 127 -131.5t55 -221.5q0 -101 -34.5 -193t-89.5 -157.5t-113.5 -111t-116.5 -69.5zM745 1027l2 22q58 30 104 113t46 194q0 59 -19 126t-43 91l5 41l192 156q72 -40 127 -131.5t55 -221.5 q0 -101 -34.5 -193t-89.5 -157.5t-113.5 -111t-116.5 -69.5z" />
<glyph unicode="&#x201e;" horiz-adv-x="1247" d="M14 -412l2 22q58 30 104 113t46 194q0 59 -19 126t-43 91l5 41l192 156q72 -40 127 -131.5t55 -221.5q0 -101 -34.5 -193t-89.5 -157.5t-113.5 -111t-116.5 -69.5zM552 -412l2 22q58 30 104 113t46 194q0 59 -19 126t-43 91l5 41l192 156q72 -40 127 -131.5t55 -221.5 q0 -101 -34.5 -193t-89.5 -157.5t-113.5 -111t-116.5 -69.5z" />
<glyph unicode="&#x2022;" horiz-adv-x="858" d="M233 683q0 94 74 175t177 81q76 0 126 -49t50 -123q0 -97 -71 -178.5t-180 -81.5q-74 0 -125 51.5t-51 124.5z" />
<glyph unicode="&#x2026;" horiz-adv-x="1578" d="M30 123q0 88 57.5 151.5t150.5 63.5q83 0 122 -41.5t39 -107.5q0 -98 -58 -158t-155 -60q-72 0 -114 42t-42 110zM556 123q0 88 57.5 151.5t150.5 63.5q83 0 122 -41.5t39 -107.5q0 -98 -58 -158t-155 -60q-72 0 -114 42t-42 110zM1082 123q0 88 57.5 151.5t150.5 63.5 q83 0 122 -41.5t39 -107.5q0 -98 -58 -158t-155 -60q-72 0 -114 42t-42 110z" />
<glyph unicode="&#x202f;" horiz-adv-x="402" />
<glyph unicode="&#x2039;" horiz-adv-x="1190" d="M174 530l32 190l742 396l58 -205l-430 -306l364 -301l-110 -172z" />
<glyph unicode="&#x203a;" horiz-adv-x="1190" d="M213 327l430 306l-364 301l110 172l656 -398l-32 -190l-742 -396z" />
<glyph unicode="&#x205f;" horiz-adv-x="503" />
<glyph unicode="&#x20ac;" horiz-adv-x="1389" d="M23 524l19 182h179q4 79 18 154h-171l19 182h203q91 234 278.5 369t426.5 135q47 0 86.5 -3t75.5 -10t53 -11t54.5 -16t44.5 -14l-74 -269q-21 24 -93 46.5t-151 22.5q-108 0 -192.5 -66t-140.5 -184h464l-19 -182h-504q-14 -63 -21 -154h505l-15 -182h-490 q30 -308 265 -308q89 0 161 33.5t146 90.5l70 -201q-57 -65 -176.5 -110t-265.5 -45q-135 0 -239 44.5t-167.5 122.5t-99 170.5t-47.5 202.5h-202z" />
<glyph unicode="&#x2122;" horiz-adv-x="2120" d="M179 1360l28 170h666l-22 -170h-240l-94 -646l-191 -1l94 647h-241zM893 714l150 816h313l87 -396l25 -183l240 579h318l-37 -816h-194l41 541l17 185l-38 -90l-277 -644h-177l-121 549l-34 185l-30 -185l-82 -541h-201z" />
<glyph unicode="&#x25fc;" horiz-adv-x="1140" d="M0 0v1140h1140v-1140h-1140z" />
</font>
</defs>
</svg>
